Капкан / Crawl (Александр Ажа / Alexandre Aja) [2019, Ужасы, боевик, триллер, BDRip 720p] Лицензия :: UZTOR.PW Лучший трекер в зоне TAS-IX!
Регистрация ·
Имя: Пароль:  
· Забыли пароль?
Уважаемые гости сайта! Добро Пожаловать на наш торрент трекер,где Вы можете бесплатно скачать любой Софт,Фильмы,Музыку и многое другое! А так же постоянно ведется набор модераторов и релизеров. Зарегистрируйтесь сейчас, чтобы получить доступ ко всем функциям. После регистрации или входа на сайт вы сможете создавать темы, отвечать на сообщения и скачивать файлы.

Навигация по Торрент раздачам и Форум

До нового обновления Торрент-Трекер осталось

 Капкан / Crawl (Александр Ажа / Alexandre Aja) [2019, Ужасы, боевик, триллер, BDRip 720p] Лицензия

Главная  Кинофильмы  Зарубежные кинофильмы  HD
Статистика раздачи
Нет
 
     
 
 
Автор Сообщение
  • NuRKHoNoFF ®
  • Не в сети
  • 5064
  • Пол: Мужской

  • Стаж: 11 месяцев 27 дней

  • Сообщений: 935

  • Откуда: Каттакурган

  • Провайдер: TPS TPS

  • Карма: 583


  • Наличие запрета:

  • Награды: 17 (Подробнее)
    Активный релизер 1 (Количество: 1) Активный релизер 2 (Количество: 1) Активный релизер 3 (Количество: 1) Активный релизер 4 (Количество: 1) Активный релизер 5 (Количество: 1)
  • Создавать темы 14-Ноя-2019 22:09

    Капкан / Crawl -Год выпуска: 2019
    Страна: США, Сербия, Канада
    Жанр: Ужасы, боевик, триллер
    Продолжительность: 01:27:32
    Перевод: Дублированный [Лицензия Blu-Ray EUR]-Режиссер: Александр Ажа / Alexandre Aja-В ролях: Кая Скоделарио, Бэрри Пеппер, Морфидд Кларк, Росс Андерсон, Хосе Пальма, Джордж Сомнер, Энсон Бун, Эми Меткалф, Тина Прибичевич, Срна Васильевич, Колин Макфарлэйн, Аннамария Серда, Саванна Штейн, Йована Драгаш, Кристофер Ландри-Описание: Когда на Флориду обрушивается мощнейший ураган, Хейли игнорирует приказы об эвакуации, чтобы попытаться встретиться в этом хаосе с пропавшим отцом. Она обнаруживает его тяжелораненым в подвале их дома, где они оказываются в ловушке из-за прибывающей воды. Но это меньшее, чего им стоит бояться...
    - -Качество: BDRip 720p
    Формат: MKV
    Видео: AVC, 1280x536, 23.976 fps, 5998 kbps
    Аудио №1: AC3, 48 kHz, 6 ch, 448 kbps - Русский DUB
    Аудио №2: AC3, 48 kHz, 2 ch, 256 kbps - Русский AVO Хихидок
    Аудио №3: AC3, 48 kHz, 6 ch, 448 kbps - Английский Original-

    MediaInfo

    Format : Matroska
    Format version : Version 2
    File size : 4.37 GiB
    Duration : 1 h 27 min
    Overall bit rate : 7 152 kb/s
    Encoded date : UTC 2019-11-14 03:42:12
    Writing application : mkvmerge v5.3.0 ('I could have danced') built on Feb 9 2012 10:38:07
    Writing library : libebml v1.2.3 + libmatroska v1.3.0
    Cover : Yes
    Attachments : cover 5.jpg
    Video
    ID : 1
    Format : AVC
    Format/Info : Advanced Video Codec
    Format profile : High@L4.1
    Format settings : CABAC / 12 Ref Frames
    Format settings, CABAC : Yes
    Format settings, ReFrames : 12 frames
    Codec ID : V_MPEG4/ISO/AVC
    Duration : 1 h 27 min
    Bit rate : 5 998 kb/s
    Width : 1 280 pixels
    Height : 536 pixels
    Display aspect ratio : 2.40:1
    Frame rate mode : Constant
    Frame rate : 23.976 (24000/1001) FPS
    Color space : YUV
    Chroma subsampling : 4:2:0
    Bit depth : 8 bits
    Scan type : Progressive
    Bits/(Pixel*Frame) : 0.365
    Stream size : 3.58 GiB (82%)
    Writing library : x264 core 158 r2984 3759fcb
    Encoding settings : cabac=1 / ref=12 / deblock=1:-3:-3 / analyse=0x3:0x133 / me=umh / subme=11 / psy=1 / psy_rd=1.00:0.05 / mixed_ref=1 / me_range=32 / chroma_me=1 / trellis=2 / 8x8dct=1 / cqm=0 / deadzone=21,11 / fast_pskip=0 / chroma_qp_offset=-3 / threads=12 / lookahead_threads=3 / sliced_threads=0 / nr=0 / decimate=0 / interlaced=0 / bluray_compat=0 / constrained_intra=0 / bframes=12 / b_pyramid=2 / b_adapt=2 / b_bias=0 / direct=3 / weightb=1 / open_gop=0 / weightp=2 / keyint=240 / keyint_min=23 / scenecut=40 / intra_refresh=0 / rc_lookahead=60 / rc=2pass / mbtree=0 / bitrate=5998 / ratetol=1.0 / qcomp=0.65 / qpmin=0 / qpmax=69 / qpstep=4 / cplxblur=20.0 / qblur=0.5 / vbv_maxrate=50000 / vbv_bufsize=62500 / nal_hrd=none / filler=0 / ip_ratio=1.30 / pb_ratio=1.30 / aq=3:0.90
    Language : English
    Default : Yes
    Forced : No
    Color range : Limited
    Color primaries : BT.709
    Transfer characteristics : BT.709
    Matrix coefficients : BT.709
    Audio #1
    ID : 2
    Format : AC-3
    Format/Info : Audio Coding 3
    Commercial name : Dolby Digital
    Codec ID : A_AC3
    Duration : 1 h 27 min
    Bit rate mode : Constant
    Bit rate : 448 kb/s
    Channel(s) : 6 channels
    Channel layout : L R C LFE Ls Rs
    Sampling rate : 48.0 kHz
    Frame rate : 31.250 FPS (1536 SPF)
    Bit depth : 16 bits
    Compression mode : Lossy
    Stream size : 280 MiB (6%)
    Title : DUB
    Language : Russian
    Service kind : Complete Main
    Default : Yes
    Forced : Yes
    Audio #2
    ID : 3
    Format : AC-3
    Format/Info : Audio Coding 3
    Commercial name : Dolby Digital
    Codec ID : A_AC3
    Duration : 1 h 27 min
    Bit rate mode : Constant
    Bit rate : 256 kb/s
    Channel(s) : 2 channels
    Channel layout : L R
    Sampling rate : 48.0 kHz
    Frame rate : 31.250 FPS (1536 SPF)
    Bit depth : 16 bits
    Compression mode : Lossy
    Stream size : 160 MiB (4%)
    Title : VO (xixidok)
    Language : Russian
    Service kind : Complete Main
    Default : No
    Forced : No
    Audio #3
    ID : 4
    Format : AC-3
    Format/Info : Audio Coding 3
    Commercial name : Dolby Digital
    Codec ID : A_AC3
    Duration : 1 h 27 min
    Bit rate mode : Constant
    Bit rate : 448 kb/s
    Channel(s) : 6 channels
    Channel layout : L R C LFE Ls Rs
    Sampling rate : 48.0 kHz
    Frame rate : 31.250 FPS (1536 SPF)
    Bit depth : 16 bits
    Compression mode : Lossy
    Stream size : 280 MiB (6%)
    Title : Original
    Language : English
    Service kind : Complete Main
    Default : No
    Forced : No
    Text #1
    ID : 5
    Format : UTF-8
    Codec ID : S_TEXT/UTF8
    Codec ID/Info : UTF-8 Plain Text
    Title : forced
    Language : Russian
    Default : Yes
    Forced : No
    Text #2
    ID : 6
    Format : UTF-8
    Codec ID : S_TEXT/UTF8
    Codec ID/Info : UTF-8 Plain Text
    Title : Full (Enigma)
    Language : Russian
    Default : No
    Forced : No
    Text #3
    ID : 7
    Format : UTF-8
    Codec ID : S_TEXT/UTF8
    Codec ID/Info : UTF-8 Plain Text
    Title : Full (Focs)
    Language : Russian
    Default : No
    Forced : No
    Text #4
    ID : 8
    Format : UTF-8
    Codec ID : S_TEXT/UTF8
    Codec ID/Info : UTF-8 Plain Text
    Title : Full
    Language : English
    Default : No
    Forced : No
    Text #5
    ID : 9
    Format : UTF-8
    Codec ID : S_TEXT/UTF8
    Codec ID/Info : UTF-8 Plain Text
    Title : SDH
    Language : English
    Default : No
    Forced : No
    Text #6
    ID : 10
    Format : UTF-8
    Codec ID : S_TEXT/UTF8
    Codec ID/Info : UTF-8 Plain Text
    Title : SDH Colored
    Language : English
    Default : No
    Forced : No


    _________________
    Показать сообщения:    
    Главная  Кинофильмы  Зарубежные кинофильмы  HD

    Текущее время: 14-Дек 07:49

    Часовой пояс: UTC + 5



    Вы не можете начинать темы
    Вы не можете отвечать на сообщения
    Вы не можете редактировать свои сообщения
    Вы не можете удалять свои сообщения
    Вы не можете голосовать в опросах
    Вы не можете прикреплять файлы к сообщениям
    Вы не можете скачивать файлы