Русское краткое. Выпуск 2 (Александр Домогаров мл., Ирина Вилкова, Ира Волкова) [2018, Комедия, драма, ужасы, WEB-DL 1080p] iTunes :: UZTOR.PW Лучший трекер в зоне TAS-IX!
Регистрация ·
Имя: Пароль:  
· Забыли пароль?
Уважаемые гости сайта! Добро Пожаловать на наш торрент трекер,где Вы можете бесплатно скачать любой Софт,Фильмы,Музыку и многое другое! А так же постоянно ведется набор модераторов и релизеров. Зарегистрируйтесь сейчас, чтобы получить доступ ко всем функциям. После регистрации или входа на сайт вы сможете создавать темы, отвечать на сообщения и скачивать файлы.

Навигация по Торрент раздачам и Форум

До нового обновления Торрент-Трекер осталось

 Русское краткое. Выпуск 2 (Александр Домогаров мл., Ирина Вилкова, Ира Волкова) [2018, Комедия, драма, ужасы, WEB-DL 1080p] iTunes

Главная  Кинофильмы  Российские кинофильмы  HD
Статистика раздачи
Нет
 
     
 
 
Автор Сообщение
  • NuRKHoNoFF ®
  • Не в сети
  • 5064
  • Пол: Мужской

  • Стаж: 11 месяцев 20 дней

  • Сообщений: 918

  • Откуда: Каттакурган

  • Провайдер: TPS TPS

  • Карма: 583


  • Наличие запрета:

  • Награды: 17 (Подробнее)
    Активный релизер 1 (Количество: 1) Активный релизер 2 (Количество: 1) Активный релизер 3 (Количество: 1) Активный релизер 4 (Количество: 1) Активный релизер 5 (Количество: 1)
  • Создавать темы 14-Ноя-2019 20:45

    Русское краткое. Выпуск 2 -Год выпуска: 2018
    Страна: Россия
    Жанр: Комедия, драма, ужасы
    Продолжительность: 01:38:05
    Язык: Оригинал [iTunes]-Режиссер: Александр Домогаров мл., Ирина Вилкова, Ира Волкова-В ролях: Татьяна Кузнецова, Александр Ильин мл., Энтони Бэшоу, Ирина Вилкова, Алексей Ильин, Даниил Воробьёв, Лукерья Ильяшенко, Сергей Кемпо, Павел Трубинер, Елена Нестерова-Описание: «Русское краткое. Выпуск 2» — это пять необычных коротких историй от российских режиссеров. Хоррор о мистической школе «Пустите детей», эротический триллер «Серёжка», черная комедия «Грибы и рыбы» про лесную прогулку двух приятелей, остроумная киноновелла «Чё» о спонтанной поездке в Санкт-Петербург и постновогодняя история о поиске пропавшего парня по имени Костик.- -Качество: WEB-DL 1080p
    Формат: MKV
    Видео: AVC, 5118 Kb/s, 1920x1080
    Аудио: AC3, 6 ch, 384 Kbps-

    MediaInfo

    General
    Unique ID : 212981691120506889697301934983322328308 (0xA03AC81A71F89FCB9C0B83A31514DCF4)
    Complete name : Russkoe.kratkoe.2.2018.WEB-DL.1080p.ELEKTRI4KA.UNIONGANG.mkv
    Format : Matroska
    Format version : Version 4
    File size : 3.85 GiB
    Duration : 1 h 38 min
    Overall bit rate : 5 614 kb/s
    Encoded date : UTC 2019-11-13 21:19:38
    Writing application : mkvmerge v8.3.0 ('Over the Horizon') 64bit
    Writing library : libebml v1.3.1 + libmatroska v1.4.2
    Video
    ID : 1
    Format : AVC
    Format/Info : Advanced Video Codec
    Format profile : High@L4
    Format settings : CABAC / 4 Ref Frames
    Format settings, CABAC : Yes
    Format settings, Reference : 4 frames
    Codec ID : V_MPEG4/ISO/AVC
    Duration : 1 h 38 min
    Bit rate : 5 228 kb/s
    Width : 1 920 pixels
    Height : 1 080 pixels
    Display aspect ratio : 16:9
    Frame rate mode : Constant
    Frame rate : 24.000 FPS
    Color space : YUV
    Chroma subsampling : 4:2:0
    Bit depth : 8 bits
    Scan type : Progressive
    Bits/(Pixel*Frame) : 0.105
    Stream size : 3.58 GiB (93%)
    Title : ELEKTRI4KA.UNIONGANG
    Language : English
    Default : Yes
    Forced : No
    Color range : Limited
    Color primaries : BT.709
    Transfer characteristics : BT.709
    Matrix coefficients : BT.709
    Audio
    ID : 2
    Format : AC-3
    Format/Info : Audio Coding 3
    Commercial name : Dolby Digital
    Codec ID : A_AC3
    Duration : 1 h 38 min
    Bit rate mode : Constant
    Bit rate : 384 kb/s
    Channel(s) : 6 channels
    Channel layout : L R C LFE Ls Rs
    Sampling rate : 48.0 kHz
    Frame rate : 31.250 FPS (1536 SPF)
    Bit depth : 16 bits
    Compression mode : Lossy
    Stream size : 269 MiB (7%)
    Title : iTunes (ELEKTRI4KA.UNIONGANG)
    Language : Russian
    Service kind : Complete Main
    Default : Yes
    Forced : No


    _________________
    Показать сообщения:    
    Главная  Кинофильмы  Российские кинофильмы  HD

    Текущее время: 08-Дек 00:19

    Часовой пояс: UTC + 5



    Вы не можете начинать темы
    Вы не можете отвечать на сообщения
    Вы не можете редактировать свои сообщения
    Вы не можете удалять свои сообщения
    Вы не можете голосовать в опросах
    Вы не можете прикреплять файлы к сообщениям
    Вы не можете скачивать файлы