Побег из джунглей / Boonie Bears: Blast Into the Past (Линь Хуэйда, Дин Лян / Lin Huida, Ding Liang) [2019, мультфильм, комедия, фантастика, WEB-DL 1080p] iTunes :: UZTOR.PW Лучший трекер в зоне TAS-IX!
Регистрация ·
Имя: Пароль:  
· Забыли пароль?
Уважаемые гости сайта! Добро Пожаловать на наш торрент трекер,где Вы можете бесплатно скачать любой Софт,Фильмы,Музыку и многое другое! А так же постоянно ведется набор модераторов и релизеров. Зарегистрируйтесь сейчас, чтобы получить доступ ко всем функциям. После регистрации или входа на сайт вы сможете создавать темы, отвечать на сообщения и скачивать файлы.

Навигация по Торрент раздачам и Форум

До нового обновления Торрент-Трекер осталось

 Побег из джунглей / Boonie Bears: Blast Into the Past (Линь Хуэйда, Дин Лян / Lin Huida, Ding Liang) [2019, мультфильм, комедия, фантастика, WEB-DL 1080p] iTunes

Главная  Мультфильмы  Зарубежные мультфильмы  HD
Статистика раздачи
Нет
 
     
 
 
Автор Сообщение
  • NuRKHoNoFF ®
  • Не в сети
  • 5064
  • Пол: Мужской

  • Стаж: 11 месяцев 22 дня

  • Сообщений: 918

  • Откуда: Каттакурган

  • Провайдер: TPS TPS

  • Карма: 583


  • Наличие запрета:

  • Награды: 17 (Подробнее)
    Активный релизер 1 (Количество: 1) Активный релизер 2 (Количество: 1) Активный релизер 3 (Количество: 1) Активный релизер 4 (Количество: 1) Активный релизер 5 (Количество: 1)
  • Создавать темы 14-Ноя-2019 02:49

    Побег из джунглей / Boonie Bears: Blast Into the Past -Год выпуска: 2019
    Страна: Китай
    Жанр: Мультфильм, комедия, фантастика
    Продолжительность: 01:29:28
    Перевод: Дублированный [iTunes]-Режиссер: Линь Хуэйда, Дин Лян / Lin Huida, Ding Liang-В ролях: Чжан Вэй, Чжан Бинцзюнь, Тань Сяо, Сун Цзуэр, Ван Даньцин, Мэн Юйтянь-Описание: Во время экскурсии в древнюю пещеру медведи Брайр и Брэмбл и их друг-дровосек Вик внезапно оказываются в настоящем доисторическом прошлом. Чтобы вернуться назад, им придется совершить большое путешествие во времени и пережить невероятные приключения: столкнуться с огромными хищными птицами, гигантскими черепахами и многочисленными неведомыми и опасными обитателями первобытных джунглей. Но главное - найти новых друзей и дорогу домой!
    - -Качество: WEB-DL 1080p
    Формат: MKV
    Видео: MPEG-4 AVC, 1920x804, 4415 Kbps, 24.000 fps
    Аудио: AC3, 6 ch, 48 kHz, 384 kbps-

    MediaInfo

    General
    Unique ID : 176356767762693807419750230798945143520 (0x84AD13F758991B8C929A6808B6BACAE0)
    Complete name : POBEG_iz_JUNGLEJ_2019_WEB-DL_1080p-BLUEBIRD.mkv
    Format : Matroska
    Format version : Version 4 / Version 2
    File size : 3.06 GiB
    Duration : 1 h 29 min
    Overall bit rate : 4 897 kb/s
    Movie name : POBEG_iz_JUNGLEJ_2019_WEB-DL_1080p-BLUEBIRD
    Encoded date : UTC 2019-11-13 19:28:55
    Writing application : mkvmerge v6.9.1 ('Blue Panther') 32bit built on Apr 18 2014 18:15:44
    Writing library : libebml v1.3.0 + libmatroska v1.4.1
    Cover : Yes
    Attachments : cover.png
    Video
    ID : 1
    Format : AVC
    Format/Info : Advanced Video Codec
    Format profile : High@L4
    Format settings, CABAC : Yes
    Format settings, RefFrames : 5 frames
    Codec ID : V_MPEG4/ISO/AVC
    Duration : 1 h 29 min
    Bit rate : 4 415 kb/s
    Width : 1 920 pixels
    Height : 804 pixels
    Display aspect ratio : 2.40:1
    Frame rate mode : Constant
    Frame rate : 24.000 FPS
    Color space : YUV
    Chroma subsampling : 4:2:0
    Bit depth : 8 bits
    Scan type : Progressive
    Bits/(Pixel*Frame) : 0.119
    Stream size : 2.76 GiB (90%)
    Language : English
    Default : Yes
    Forced : No
    Color range : Limited
    Color primaries : BT.709
    Transfer characteristics : BT.709
    Matrix coefficients : BT.709
    Audio
    ID : 2
    Format : AC-3
    Format/Info : Audio Coding 3
    Format settings, Endianness : Big
    Codec ID : A_AC3
    Duration : 1 h 29 min
    Bit rate mode : Constant
    Bit rate : 384 kb/s
    Channel(s) : 6 channels
    Channel positions : Front: L C R, Side: L R, LFE
    Sampling rate : 48.0 kHz
    Frame rate : 31.250 FPS (1536 SPF)
    Bit depth : 16 bits
    Compression mode : Lossy
    Stream size : 246 MiB (8%)
    Title : [DUB] DD 5.1 @ 384 kbps (iTunes)
    Language : Russian
    Service kind : Complete Main
    Default : Yes
    Forced : No


    _________________
    Показать сообщения:    
    Главная  Мультфильмы  Зарубежные мультфильмы  HD

    Текущее время: 09-Дек 13:02

    Часовой пояс: UTC + 5



    Вы не можете начинать темы
    Вы не можете отвечать на сообщения
    Вы не можете редактировать свои сообщения
    Вы не можете удалять свои сообщения
    Вы не можете голосовать в опросах
    Вы не можете прикреплять файлы к сообщениям
    Вы не можете скачивать файлы