Айрис 2 / Iris 2 / Сезон 2 Полный / Серии 1-20 из 20 (Мин Су Пе, Тэ Хон Ким) [2013, Экшн, боевик, драма, дорама, HDTVRip 720p] MVO :: UZTOR.PW Лучший трекер в зоне TAS-IX!
Регистрация ·
Имя: Пароль:  
· Забыли пароль?
Уважаемые гости сайта! Добро Пожаловать на наш торрент трекер,где Вы можете бесплатно скачать любой Софт,Фильмы,Музыку и многое другое! А так же постоянно ведется набор модераторов и релизеров. Зарегистрируйтесь сейчас, чтобы получить доступ ко всем функциям. После регистрации или входа на сайт вы сможете создавать темы, отвечать на сообщения и скачивать файлы.

Навигация по Торрент раздачам и Форум

До нового обновления Торрент-Трекер осталось

 Айрис 2 / Iris 2 / Сезон 2 Полный / Серии 1-20 из 20 (Мин Су Пе, Тэ Хон Ким) [2013, Экшн, боевик, драма, дорама, HDTVRip 720p] MVO

Главная  Сериалы  Сериалы других стран
Статистика раздачи
Нет
 
     
 
 
Автор Сообщение
  • NuRKHoNoFF ®
  • Не в сети
  • 5064
  • Пол: Мужской

  • Стаж: 11 месяцев 20 дней

  • Сообщений: 918

  • Откуда: Каттакурган

  • Провайдер: TPS TPS

  • Карма: 583


  • Наличие запрета:

  • Награды: 17 (Подробнее)
    Активный релизер 1 (Количество: 1) Активный релизер 2 (Количество: 1) Активный релизер 3 (Количество: 1) Активный релизер 4 (Количество: 1) Активный релизер 5 (Количество: 1)
  • Создавать темы 14-Ноя-2019 00:06

    Айрис 2 / Iris 2 -Год выпуска: 2013
    Страна: Корея Южная
    Жанр: Экшн, боевик, драма, дорама
    Продолжительность: ~ 01:02:00
    Перевод: Любительский (двухголосый, закадровый)-Режиссер: Мин Су Пе, Тэ Хон Ким-В ролях: Чжан Хёк, Бом Су Ли, Да Хэ Ли, Юн Су О, Ён Чхоль Ким, Ду Чжун Юн, Су Хян Им, Джун Ли, Сон Хён Пэк, Хен Чжун Чха, Чжи Хен Ким, Дэвид Ли МакИннис, Фуэки Юко, Сын У Ким, Со Ён Ким, Со Чжи Юн, Чжу Сан Юн, Чжун Гил Ли, Сок Вон Чон, Сон Ха Чо, Со И Юн, Со Хён Ким (I), Чжин Мо Чу (II), Дон Иль Сон, Сан Ук Пак, Чжон Гу Ким, Го Юн Ким-Описание: Прошло 3 года после гибели Хён Чжуна. Сюжет закручивается вокруг обстоятельств его трагической смерти и Пэк Сана, пособника секретной организации «Айрис». А также история поведает нам о таинственном мистере Блэке, который управлял действиями Пэк Сана. Ю Гон - капитан оперативно-тактической группы, и агенты НСС ведут непрерывный бой с могущественным противником, который стал лишь сильнее. Участие в расследовании дела Пэк Сана навсегда изменит судьбу Чон Ю Гона.- -Качество: HDTVRip 720p
    Формат: AVI
    Видео: AVC, ~ 2700 Кбит/с, 1280x720
    Аудио: MP3, 2 ch, 192 Кбит/с-

    MediaInfo

    General
    Complete name : [GREEN TEA] IRIS 2 ep01.avi
    Format : AVI
    Format/Info : Audio Video Interleave
    File size : 1.41 GiB
    Duration : 1 h 2 min
    Overall bit rate : 3 218 kb/s
    Writing application : VirtualDubMod 1.5.10.2 (build 2540/release)
    Writing library : VirtualDubMod build 2540/release
    Video
    ID : 0
    Format : AVC
    Format/Info : Advanced Video Codec
    Format profile : High@L5.1
    Format settings : CABAC / 4 Ref Frames
    Format settings, CABAC : Yes
    Format settings, Reference frames : 4 frames
    Codec ID : H264
    Duration : 1 h 2 min
    Bit rate : 3 000 kb/s
    Width : 1 280 pixels
    Height : 720 pixels
    Display aspect ratio : 16:9
    Frame rate : 29.970 (30000/1001) FPS
    Color space : YUV
    Chroma subsampling : 4:2:0
    Bit depth : 8 bits
    Scan type : Progressive
    Bits/(Pixel*Frame) : 0.109
    Stream size : 1.32 GiB (94%)
    Writing library : x264 core 115 r2008kMod 4c552d8
    Encoding settings : cabac=1 / ref=4 / deblock=1:0:0 / analyse=0x3:0x13 / me=umh / subme=7 / psy=1 / fade_compensate=0.00 / psy_rd=1.00:0.00 / mixed_ref=1 / me_range=16 / chroma_me=1 / trellis=1 / 8x8dct=1 / cqm=0 / deadzone=21,11 / fast_pskip=1 / chroma_qp_offset=-2 / threads=4 / sliced_threads=1 / slices=4 / nr=0 / decimate=1 / interlaced=0 / bluray_compat=0 / constrained_intra=0 / bframes=0 / weightp=2 / keyint=250 / keyint_min=25 / scenecut=40 / intra_refresh=0 / rc_lookahead=0 / rc=2pass / mbtree=0 / bitrate=3000 / ratetol=1.0 / qcomp=0.60 / qpmin=10 / qpmax=51 / qpstep=4 / cplxblur=20.0 / qblur=0.5 / vbv_maxrate=3000 / vbv_bufsize=3000 / nal_hrd=none / ip_ratio=1.40 / aq=1:1.00
    Audio
    ID : 1
    Format : MPEG Audio
    Format version : Version 1
    Format profile : Layer 3
    Format settings : Joint stereo
    Codec ID : 55
    Codec ID/Hint : MP3
    Duration : 1 h 2 min
    Bit rate mode : Constant
    Bit rate : 192 kb/s
    Channel(s) : 2 channels
    Sampling rate : 48.0 kHz
    Compression mode : Lossy
    Stream size : 86.1 MiB (6%)
    Alignment : Aligned on interleaves
    Interleave, duration : 33 ms (1.00 video frame)
    Interleave, preload duration : 504 ms


    _________________
    Показать сообщения:    
    Главная  Сериалы  Сериалы других стран

    Текущее время: 08-Дек 00:19

    Часовой пояс: UTC + 5



    Вы не можете начинать темы
    Вы не можете отвечать на сообщения
    Вы не можете редактировать свои сообщения
    Вы не можете удалять свои сообщения
    Вы не можете голосовать в опросах
    Вы не можете прикреплять файлы к сообщениям
    Вы не можете скачивать файлы