Болевой порог (Андрей Симонов) [2019, Триллер, приключения, драма, WEB-DL 1080p] iTunes :: UZTOR.PW Лучший трекер в зоне TAS-IX!
Регистрация ·
Имя: Пароль:  
· Забыли пароль?
Уважаемые гости сайта! Добро Пожаловать на наш торрент трекер,где Вы можете бесплатно скачать любой Софт,Фильмы,Музыку и многое другое! А так же постоянно ведется набор модераторов и релизеров. Зарегистрируйтесь сейчас, чтобы получить доступ ко всем функциям. После регистрации или входа на сайт вы сможете создавать темы, отвечать на сообщения и скачивать файлы.

Навигация по Торрент раздачам и Форум

До нового обновления Торрент-Трекер осталось

 Болевой порог (Андрей Симонов) [2019, Триллер, приключения, драма, WEB-DL 1080p] iTunes

Главная  Кинофильмы  Российские кинофильмы  HD
Статистика раздачи
Нет
 
     
 
 
Автор Сообщение
  • NuRKHoNoFF ®
  • Не в сети
  • 5064
  • Пол: Мужской

  • Стаж: 11 месяцев 27 дней

  • Сообщений: 935

  • Откуда: Каттакурган

  • Провайдер: TPS TPS

  • Карма: 583


  • Наличие запрета:

  • Награды: 17 (Подробнее)
    Активный релизер 1 (Количество: 1) Активный релизер 2 (Количество: 1) Активный релизер 3 (Количество: 1) Активный релизер 4 (Количество: 1) Активный релизер 5 (Количество: 1)
  • Создавать темы 13-Ноя-2019 00:16

    Болевой порог -Год выпуска: 2019
    Страна: Россия
    Жанр: Триллер, приключения, драма
    Продолжительность: 01:22:56
    Язык: Оригинал [iTunes]-Режиссер: Андрей Симонов-В ролях: Арина Постникова, Роман Курцын, Кирилл Комаров, Наталья Скоморохова, Григорий Чабан, Александр Голубков, Олег Фомин, Евгений Атарик, Евгений Мундум, Алексей Дерябкин-Описание: В результате скандального ДТП четверо москвичей - двое друзей и их девушки - вынуждены уехать из столицы в Горный Алтай. Они хотят расслабиться и отдохнуть, но вновь попадают в экстремальную ситуацию, где каждый проявит свой характер и столкнется с собственными демонами. На кону - дружба, любовь и сама возможность остаться в живых.- -Качество: WEB-DL 1080p
    Формат: MKV
    Видео: AVC, 4523 Kb/s, 1920x814
    Аудио : AC3, 6 ch, 384 Кбит/с-

    MediaInfo

    General
    Unique ID : 192026429819173559182624257956369682685 (0x9076F1F40E62F6C9BAE622192F1850FD)
    Complete name : Bolevoj.Porog.2019.O.WEB-DL.1080p.mkv
    Format : Matroska
    Format version : Version 4
    File size : 2.84 GiB
    Duration : 1 h 21 min
    Overall bit rate : 5 007 kb/s
    Movie name : BOLEOJ_POROG_WEB-DL_1080p-BLUEBIRD
    Encoded date : UTC 2019-11-12 00:13:48
    Writing application : mkvmerge v6.9.1 ('Blue Panther') 32bit built on Apr 18 2014 18:15:44
    Writing library : libebml v1.3.0 + libmatroska v1.4.1
    Cover : Yes
    Attachments : cover.png
    Video
    ID : 1
    Format : AVC
    Format/Info : Advanced Video Codec
    Format profile : High@L4
    Format settings : CABAC / 5 Ref Frames
    Format settings, CABAC : Yes
    Format settings, Reference frames : 5 frames
    Codec ID : V_MPEG4/ISO/AVC
    Duration : 1 h 21 min
    Bit rate : 4 523 kb/s
    Width : 1 920 pixels
    Height : 814 pixels
    Display aspect ratio : 2.35:1
    Frame rate mode : Constant
    Frame rate : 25.000 FPS
    Color space : YUV
    Chroma subsampling : 4:2:0
    Bit depth : 8 bits
    Scan type : Progressive
    Bits/(Pixel*Frame) : 0.116
    Stream size : 2.56 GiB (90%)
    Title : BOLEOJ_POROG_WEB-DL_1080p-BLUEBIRD
    Language : English
    Default : Yes
    Forced : No
    Color range : Limited
    Color primaries : BT.709
    Transfer characteristics : BT.709
    Matrix coefficients : BT.709
    Audio
    ID : 2
    Format : AC-3
    Format/Info : Audio Coding 3
    Commercial name : Dolby Digital
    Codec ID : A_AC3
    Duration : 1 h 21 min
    Bit rate mode : Constant
    Bit rate : 384 kb/s
    Channel(s) : 6 channels
    Channel layout : L R C LFE Ls Rs
    Sampling rate : 48.0 kHz
    Frame rate : 31.250 FPS (1536 SPF)
    Bit depth : 16 bits
    Compression mode : Lossy
    Stream size : 223 MiB (8%)
    Title : [ORIGINAL] DD 5.1 @ 384 kbps (iTunes)
    Language : Russian
    Service kind : Complete Main
    Default : Yes
    Forced : No
    Menu
    00:00:00.000 : en:Глава 1
    00:08:01.440 : en:Глава 2
    00:16:32.680 : en:Глава 3
    00:24:46.640 : en:Глава 4
    00:33:05.880 : en:Глава 5
    00:41:10.920 : en:Глава 6
    00:49:39.120 : en:Глава 7
    00:58:02.760 : en:Глава 8
    01:06:11.480 : en:Глава 9
    01:14:19.600 : en:Глава 10


    _________________
    Показать сообщения:    
    Главная  Кинофильмы  Российские кинофильмы  HD

    Текущее время: 14-Дек 07:29

    Часовой пояс: UTC + 5



    Вы не можете начинать темы
    Вы не можете отвечать на сообщения
    Вы не можете редактировать свои сообщения
    Вы не можете удалять свои сообщения
    Вы не можете голосовать в опросах
    Вы не можете прикреплять файлы к сообщениям
    Вы не можете скачивать файлы