Проклятие «Мэри» / Mary (Майкл Гои / Michael Goy) [2019, Ужасы, WEB-DL 1080p] iTunes :: UZTOR.PW Лучший трекер в зоне TAS-IX!
Регистрация ·
Имя: Пароль:  
· Забыли пароль?
Уважаемые гости сайта! Добро Пожаловать на наш торрент трекер,где Вы можете бесплатно скачать любой Софт,Фильмы,Музыку и многое другое! А так же постоянно ведется набор модераторов и релизеров. Зарегистрируйтесь сейчас, чтобы получить доступ ко всем функциям. После регистрации или входа на сайт вы сможете создавать темы, отвечать на сообщения и скачивать файлы.

Навигация по Торрент раздачам и Форум

До нового обновления Торрент-Трекер осталось

 Проклятие «Мэри» / Mary (Майкл Гои / Michael Goy) [2019, Ужасы, WEB-DL 1080p] iTunes

Главная  Кинофильмы  Зарубежные кинофильмы  HD
Статистика раздачи
Нет
 
     
 
 
Автор Сообщение
  • NuRKHoNoFF ®
  • Не в сети
  • 5064
  • Пол: Мужской

  • Стаж: 11 месяцев 27 дней

  • Сообщений: 935

  • Откуда: Каттакурган

  • Провайдер: TPS TPS

  • Карма: 583


  • Наличие запрета:

  • Награды: 17 (Подробнее)
    Активный релизер 1 (Количество: 1) Активный релизер 2 (Количество: 1) Активный релизер 3 (Количество: 1) Активный релизер 4 (Количество: 1) Активный релизер 5 (Количество: 1)
  • Создавать темы 11-Ноя-2019 22:26

    Проклятие «Мэри» / Mary -Год выпуска: 2019
    Страна: США
    Жанр: Ужасы
    Продолжительность: 01:24:59
    Перевод: Дублированный [iTunes]-Режиссер: Майкл Даус / Michael Daus-В ролях: Гари Олдман, Дженнифер Эспозито, Эмили Мортимер, Оуэн Тиг, Стефани Скотт, Майкл Лэндис, Мануэль Рульфо, Натали Жан, Хлоя Перрин, Кэтрин Келли-Описание: Глава семейства Дэвид покупает яхту на аукционе. Он надеется начать новый бизнес по морским перевозкам, и яхта «Мэри» должна стать счастливым билетом для него и его семьи. Но чем дальше в море уходит лодка, тем более жуткие вещи начинают происходить на борту.
    .
    - -Качество: WEB-DL 1080p
    Формат: MKV
    Видео: AVC, 4519 Kb/s, 1912x796
    Аудио: AC3, 384 Kb/s, 6 ch-

    MediaInfo

    General
    Unique ID : 229640084485971481810899738408424623628 (0xACC3124EC31AEAEFA93B4869E0F4CE0C)
    Complete name : Mary.2019.WEB-DL.1080p.ELEKTRI4KA.UNIONGANG.mkv
    Format : Matroska
    Format version : Version 4
    File size : 2.91 GiB
    Duration : 1 h 24 min
    Overall bit rate : 4 904 kb/s
    Encoded date : UTC 2019-11-11 10:58:40
    Writing application : mkvmerge v8.3.0 ('Over the Horizon') 64bit
    Writing library : libebml v1.3.1 + libmatroska v1.4.2
    Video
    ID : 1
    Format : AVC
    Format/Info : Advanced Video Codec
    Format profile : High@L4
    Format settings : CABAC / 5 Ref Frames
    Format settings, CABAC : Yes
    Format settings, ReFrames : 5 frames
    Codec ID : V_MPEG4/ISO/AVC
    Duration : 1 h 24 min
    Bit rate : 4 423 kb/s
    Width : 1 912 pixels
    Height : 796 pixels
    Display aspect ratio : 2.40:1
    Frame rate mode : Constant
    Frame rate : 23.976 (24000/1001) FPS
    Color space : YUV
    Chroma subsampling : 4:2:0
    Bit depth : 8 bits
    Scan type : Progressive
    Bits/(Pixel*Frame) : 0.121
    Stream size : 2.63 GiB (90%)
    Title : ELEKTRI4KA.UNIONGANG
    Language : English
    Default : Yes
    Forced : No
    Color range : Limited
    Color primaries : BT.709
    Transfer characteristics : BT.709
    Matrix coefficients : BT.709
    Audio
    ID : 2
    Format : AC-3
    Format/Info : Audio Coding 3
    Commercial name : Dolby Digital
    Codec ID : A_AC3
    Duration : 1 h 24 min
    Bit rate mode : Constant
    Bit rate : 384 kb/s
    Channel(s) : 6 channels
    Channel layout : L R C LFE Ls Rs
    Sampling rate : 48.0 kHz
    Frame rate : 31.250 FPS (1536 SPF)
    Bit depth : 16 bits
    Compression mode : Lossy
    Stream size : 233 MiB (8%)
    Title : iTunes (ELEKTRI4KA.UNIONGANG)
    Language : Russian
    Service kind : Complete Main
    Default : Yes
    Forced : No
    Menu
    00:00:00.000 : en:1
    00:04:50.000 : en:2
    00:14:01.000 : en:3
    00:24:53.000 : en:4
    00:33:53.000 : en:5
    00:44:09.000 : en:6
    00:53:26.000 : en:7
    01:04:24.000 : en:8
    01:14:47.000 : en:9
    01:18:04.000 : en:10


    _________________
    Показать сообщения:    
    Главная  Кинофильмы  Зарубежные кинофильмы  HD

    Текущее время: 14-Дек 07:28

    Часовой пояс: UTC + 5



    Вы не можете начинать темы
    Вы не можете отвечать на сообщения
    Вы не можете редактировать свои сообщения
    Вы не можете удалять свои сообщения
    Вы не можете голосовать в опросах
    Вы не можете прикреплять файлы к сообщениям
    Вы не можете скачивать файлы