Айрис / Iris / Сезон 1 Полный / Серии 1-20 из 20 (Кю Тхэ Ким, Юн Хо Ян) [2009, Боевик, драма, дорама, HDTVRip] AVO :: UZTOR.PW Лучший трекер в зоне TAS-IX!
Регистрация ·
Имя: Пароль:  
· Забыли пароль?
Уважаемые гости сайта! Добро Пожаловать на наш торрент трекер,где Вы можете бесплатно скачать любой Софт,Фильмы,Музыку и многое другое! А так же постоянно ведется набор модераторов и релизеров. Зарегистрируйтесь сейчас, чтобы получить доступ ко всем функциям. После регистрации или входа на сайт вы сможете создавать темы, отвечать на сообщения и скачивать файлы.

Навигация по Торрент раздачам и Форум

До нового обновления Торрент-Трекер осталось

 Айрис / Iris / Сезон 1 Полный / Серии 1-20 из 20 (Кю Тхэ Ким, Юн Хо Ян) [2009, Боевик, драма, дорама, HDTVRip] AVO

Главная  Сериалы  Сериалы других стран
Статистика раздачи
Нет
 
     
 
 
Автор Сообщение
  • NuRKHoNoFF ®
  • Не в сети
  • 5064
  • Пол: Мужской

  • Стаж: 11 месяцев 23 дня

  • Сообщений: 919

  • Откуда: Каттакурган

  • Провайдер: TPS TPS

  • Карма: 583


  • Наличие запрета:

  • Награды: 17 (Подробнее)
    Активный релизер 1 (Количество: 1) Активный релизер 2 (Количество: 1) Активный релизер 3 (Количество: 1) Активный релизер 4 (Количество: 1) Активный релизер 5 (Количество: 1)
  • Создавать темы 09-Ноя-2019 00:42

    Айрис / Iris -Год выпуска: 2009
    Страна: Корея Южная
    Жанр: Боевик, драма, дорама
    Продолжительность: ~ 01:00:00
    Перевод: Любительский (одноголосый, закадровый)-Режиссер: Кю Тхэ Ким, Юн Хо Ян-В ролях: Бён Хон Ли, Тэ Хи Ким, Со Ён Ким, Чжун Хо Чон, Сын У Ким, Сын Хён Чхве, Чжи Ни Хен, Ю Мин, Ён Чхоль Ким, Чжэ Мун Юн, Чжу Сан Юн, Чжун Гил Ли, Хан Ен Чжун, На Юн, Хе Чжин Ким, Карен Миями, Гап Су Ким, Хо Бин Чон, Хо Мин Ю, Сын Рён Рю, Хён Чжун Им, Дэвид Ли МакИннис, Хан Чхоль Чо, Чжон Гу Ким-Описание: Один из самых захватывающих, динамичных и адреналогенных проектов Южной Кореи не даст зрителю ни единого шанса заскучать во время просмотра. Политические интриги, противостояние секретных организаций, ориентированных на разные цели, крепкая мужская дружба, романтические чувства – все это в достатке присутствует в этой картине. Но не так уж однозначен сюжет этой драмы. Как должен поступить секретный агент, получивший приказ ликвидировать лучшего друга? А если этот агент еще и влюблен в невесту друга? Как реабилитировать свое имя человеку, несправедливо обвиненному в шпионаже? И, наконец, как жить, если твой любимый находится по другую сторону баррикад? Такие вопросы ставит перед зрителем эта картина, предоставляя возможность каждому найти ответы на них внутри самого себя. "Айрис", вышедший на экраны в 2009 году, до сих пор считают "золотым стандартом" в жанре остросюжетного азиатского кино.- -Качество: HDTVRip
    Формат: MKV
    Видео: MPEG-4 AVC, ~ 1500 Кбит/с, 800x450
    Аудио: AC3, 2 ch, 192 Кбит/с-

    MediaInfo

    General
    Unique ID : 234385857679255085739383947257447965065 (0xB05512FDC1FCFCC7A1562F672C77E189)
    Complete name : IRIS\IRIS.E01.mkv
    Format : Matroska
    Format version : Version 2
    File size : 764 MiB
    Duration : 1 h 2 min
    Overall bit rate : 1 706 kb/s
    Encoded date : UTC 2009-11-01 11:16:04
    Writing application : mkvmerge v2.9.8 ('C'est le bon') built on Aug 13 2009 12:49:06
    Writing library : libebml v0.7.7 + libmatroska v0.8.1
    Video
    ID : 1
    Format : AVC
    Format/Info : Advanced Video Codec
    Format profile : High@L5.1
    Format settings : CABAC / 2 Ref Frames
    Format settings, CABAC : Yes
    Format settings, Reference : 2 frames
    Codec ID : V_MPEG4/ISO/AVC
    Duration : 1 h 2 min
    Bit rate : 1 500 kb/s
    Width : 800 pixels
    Height : 450 pixels
    Display aspect ratio : 16:9
    Frame rate mode : Constant
    Frame rate : 29.970 FPS
    Color space : YUV
    Chroma subsampling : 4:2:0
    Bit depth : 8 bits
    Scan type : Progressive
    Bits/(Pixel*Frame) : 0.139
    Stream size : 663 MiB (87%)
    Writing library : x264 core 50 svn-569
    Encoding settings : cabac=1 / ref=1 / deblock=1:0:0 / analyse=0x3:0x113 / me=hex / subme=5 / brdo=0 / mixed_ref=0 / me_range=16 / chroma_me=1 / trellis=1 / 8x8dct=1 / cqm=0 / chroma_qp_offset=0 / slices=1 / nr=0 / decimate=1 / bframes=2 / b_pyramid=0 / b_adapt=1 / b_bias=0 / direct=2 / wpredb=1 / bime=0 / keyint=250 / keyint_min=25 / scenecut=40 / rc=abr / bitrate=1500 / ratetol=1.0 / rceq='blurCplx^(1-qComp)' / qcomp=0.60 / qpmin=10 / qpmax=51 / qpstep=4 / ip_ratio=1.40 / pb_ratio=1.30
    Default : Yes
    Forced : No
    Audio
    ID : 2
    Format : AC-3
    Format/Info : Audio Coding 3
    Commercial name : Dolby Digital
    Codec ID : A_AC3
    Duration : 1 h 2 min
    Bit rate mode : Constant
    Bit rate : 192 kb/s
    Channel(s) : 2 channels
    Channel layout : L R
    Sampling rate : 48.0 kHz
    Frame rate : 31.250 FPS (1536 SPF)
    Bit depth : 16 bits
    Compression mode : Lossy
    Stream size : 86.0 MiB (11%)
    Service kind : Complete Main
    Default : Yes
    Forced : No


    _________________
    • NuRKHoNoFF ®
    • Не в сети
    • 5064
    • Пол: Мужской

    • Стаж: 11 месяцев 23 дня

    • Сообщений: 919

    • Откуда: Каттакурган

    • Провайдер: TPS TPS

    • Карма: 583


    • Наличие запрета:

    • Награды: 17 (Подробнее)
      Активный релизер 1 (Количество: 1) Активный релизер 2 (Количество: 1) Активный релизер 3 (Количество: 1) Активный релизер 4 (Количество: 1) Активный релизер 5 (Количество: 1)
  • Создавать темы 09-Ноя-2019 00:45 (спустя 3 минуты)

    Отличный интересный сериал! Всем советую смотреть этот сериал! Продожение тоже будет! Всем Приятного Просмотра!

    _________________
    Показать сообщения:    
    Главная  Сериалы  Сериалы других стран

    Текущее время: 10-Дек 18:35

    Часовой пояс: UTC + 5



    Вы не можете начинать темы
    Вы не можете отвечать на сообщения
    Вы не можете редактировать свои сообщения
    Вы не можете удалять свои сообщения
    Вы не можете голосовать в опросах
    Вы не можете прикреплять файлы к сообщениям
    Вы не можете скачивать файлы