Пусть идёт снег / Let It Snow (Люк Снеллин / Luke Snellin) [2019, Мелодрама, комедия, WEB-DL 720p] :: UZTOR.PW Лучший трекер в зоне TAS-IX!
Регистрация ·
Имя: Пароль:  
· Забыли пароль?
Уважаемые гости сайта! Добро Пожаловать на наш торрент трекер,где Вы можете бесплатно скачать любой Софт,Фильмы,Музыку и многое другое! А так же постоянно ведется набор модераторов и релизеров. Зарегистрируйтесь сейчас, чтобы получить доступ ко всем функциям. После регистрации или входа на сайт вы сможете создавать темы, отвечать на сообщения и скачивать файлы.

Навигация по Торрент раздачам и Форум

До нового обновления Торрент-Трекер осталось

 Пусть идёт снег / Let It Snow (Люк Снеллин / Luke Snellin) [2019, Мелодрама, комедия, WEB-DL 720p]

Главная  Кинофильмы  Зарубежные кинофильмы  HD
Статистика раздачи
Нет
 
     
 
 
Автор Сообщение
  • NuRKHoNoFF ®
  • Не в сети
  • 5064
  • Пол: Мужской

  • Стаж: 11 месяцев 20 дней

  • Сообщений: 918

  • Откуда: Каттакурган

  • Провайдер: TPS TPS

  • Карма: 582


  • Наличие запрета:

  • Награды: 17 (Подробнее)
    Активный релизер 1 (Количество: 1) Активный релизер 2 (Количество: 1) Активный релизер 3 (Количество: 1) Активный релизер 4 (Количество: 1) Активный релизер 5 (Количество: 1)
  • Создавать темы 08-Ноя-2019 23:02

    Пусть идёт снег / Let It Snow -Год выпуска: 2019
    Страна: США
    Жанр: Мелодрама, комедия
    Продолжительность: 01:33:29
    Перевод: Дублированный [Невафильм]-Субтитры: Русские (Forced, Full), английские, испанские, французские, немецкие, итальянские | Нетфликс-Режиссер: Элиз Дюран / Elise Duran-В ролях: Изабела Монер, Кирнан Шипка, Джоан Кьюсак, Одейя Раш, Джейкоб Баталон, Шамеик Мур, Митчелл Хоуп, Майлз Роббинс, Мэйсон Гудинг, Лив Хьюсон, Анна Акана, Виктор Риверс, Мэттью Нозка, Андреа де Оливейра, Анджелика Алехандро-Описание: Неожиданный снежный буран в канун Рождества застает жителей Грейстауна врасплох: поезда останавливаются, машины вязнут в снегу, а люди стараются переждать непогоду дома. И лишь храбрая девушка выбирается из застрявшего в снегу экспресса, чтобы посидеть в тишине маленькой закусочной, где выпекают вафли. Она и не догадывается, что ее поступок стал первым звеном в цепи событий, которые изменят многие жизни: одна девушка влюбится в очаровательного незнакомца, трое друзей выиграют гонку в «Вафельную», а судьба карликовой свиньи окажется в руках влюбленного баристы.
    - -Качество: WEB-DL 720p
    Формат: MKV
    Видео: MPEG-4 AVC, 1870 Kбит/с, 1280x720, 24.000 кадр/с
    Аудио №1: АС3, 6 ch, 640 Кбит/с | RUS
    Аудио №2: АС3, 6 ch, 640 Кбит/с | ENG-

    MediaInfo

    General
    Unique ID : 220522779728286916858462104715455584741 (0xA5E7247A3684C406BE35C28C4D6B59E5)
    Complete name : Let.It.Snow.2019.NF.WEBRip.720p.mkv
    Format : Matroska
    Format version : Version 4
    File size : 2.04 GiB
    Duration : 1 h 33 min
    Overall bit rate mode : Variable
    Overall bit rate : 3 132 kb/s
    Movie name : Let It Snow (2019) - EniaHD
    Encoded date : UTC 2019-11-08 13:34:54
    Writing application : mkvmerge v7.1.0 ('Good Love') 64bit built on Jul 27 2014 13:06:55
    Writing library : libebml v1.3.0 + libmatroska v1.4.1
    Video
    ID : 1
    Format : AVC
    Format/Info : Advanced Video Codec
    Format profile : Main@L3.1
    Format settings : CABAC / 3 Ref Frames
    Format settings, CABAC : Yes
    Format settings, Reference fra: 3 frames
    Codec ID : V_MPEG4/ISO/AVC
    Duration : 1 h 33 min
    Bit rate mode : Variable
    Bit rate : 1 870 kb/s
    Maximum bit rate : 2 805 kb/s
    Width : 1 280 pixels
    Height : 720 pixels
    Display aspect ratio : 16:9
    Frame rate mode : Constant
    Frame rate : 24.000 FPS
    Color space : YUV
    Chroma subsampling : 4:2:0
    Bit depth : 8 bits
    Scan type : Progressive
    Bits/(Pixel*Frame) : 0.085
    Stream size : 1.21 GiB (59%)
    Writing library : x264 core 148 r2715 7e75228
    Encoding settings : cabac=1 / ref=3 / deblock=1:0:0 / analyse=0x1:0x111 / me=umh / subme=10 / psy=1 / psy_rd=1.00:0.00 / mixed_ref=1 / me_range=24 / chroma_me=1 / trellis=2 / 8x8dct=0 / cqm=0 / deadzone=21,11 / fast_pskip=1 / chroma_qp_offset=-2 / threads=6 / lookahead_threads=1 / sliced_threads=0 / nr=0 / decimate=1 / interlaced=0 / bluray_compat=0 / stitchable=1 / constrained_intra=0 / bframes=2 / b_pyramid=0 / b_adapt=2 / b_bias=0 / direct=3 / weightb=1 / open_gop=0 / weightp=2 / keyint=250 / keyint_min=24 / scenecut=0 / intra_refresh=0 / rc_lookahead=48 / rc=2pass / mbtree=1 / bitrate=1870 / ratetol=1.0 / qcomp=0.50 / qpmin=6 / qpmax=51 / qpstep=4 / cplxblur=20.0 / qblur=0.5 / vbv_maxrate=2805 / vbv_bufsize=3740 / nal_hrd=vbr / filler=0 / ip_ratio=1.40 / aq=1:1.00
    Language : English
    Default : Yes
    Forced : No
    Audio #1
    ID : 2
    Format : AC-3
    Format/Info : Audio Coding 3
    Commercial name : Dolby Digital
    Codec ID : A_AC3
    Duration : 1 h 33 min
    Bit rate mode : Constant
    Bit rate : 640 kb/s
    Channel(s) : 6 channels
    Channel layout : L R C LFE Ls Rs
    Sampling rate : 48.0 kHz
    Frame rate : 31.250 FPS (1536 SPF)
    Compression mode : Lossy
    Stream size : 428 MiB (20%)
    Title : DUB | Невафильм
    Language : Russian
    Service kind : Complete Main
    Default : Yes
    Forced : No
    Audio #2
    ID : 3
    Format : AC-3
    Format/Info : Audio Coding 3
    Commercial name : Dolby Digital
    Codec ID : A_AC3
    Duration : 1 h 33 min
    Bit rate mode : Constant
    Bit rate : 640 kb/s
    Channel(s) : 6 channels
    Channel layout : L R C LFE Ls Rs
    Sampling rate : 48.0 kHz
    Frame rate : 31.250 FPS (1536 SPF)
    Compression mode : Lossy
    Stream size : 428 MiB (20%)
    Language : English
    Service kind : Complete Main
    Default : No
    Forced : No
    Text #1
    ID : 4
    Format : UTF-8
    Codec ID : S_TEXT/UTF8
    Codec ID/Info : UTF-8 Plain Text
    Duration : 1 h 32 min
    Bit rate : 0 b/s
    Count of elements : 11
    Stream size : 568 Bytes (0%)
    Title : Forced
    Language : Russian
    Default : Yes
    Forced : No
    Text #2
    ID : 5
    Format : UTF-8
    Codec ID : S_TEXT/UTF8
    Codec ID/Info : UTF-8 Plain Text
    Duration : 1 h 32 min
    Bit rate : 81 b/s
    Count of elements : 1313
    Stream size : 55.1 KiB (0%)
    Language : Russian
    Default : No
    Forced : No
    Text #3
    ID : 6
    Format : UTF-8
    Codec ID : S_TEXT/UTF8
    Codec ID/Info : UTF-8 Plain Text
    Duration : 1 h 32 min
    Bit rate : 71 b/s
    Count of elements : 1643
    Stream size : 48.2 KiB (0%)
    Title : SDH
    Language : English
    Default : No
    Forced : No
    Text #4
    ID : 7
    Format : UTF-8
    Codec ID : S_TEXT/UTF8
    Codec ID/Info : UTF-8 Plain Text
    Duration : 1 h 32 min
    Bit rate : 55 b/s
    Count of elements : 1195
    Stream size : 37.8 KiB (0%)
    Language : German
    Default : No
    Forced : No
    Text #5
    ID : 8
    Format : UTF-8
    Codec ID : S_TEXT/UTF8
    Codec ID/Info : UTF-8 Plain Text
    Duration : 1 h 32 min
    Bit rate : 49 b/s
    Count of elements : 1233
    Stream size : 33.4 KiB (0%)
    Language : French
    Default : No
    Forced : No
    Text #6
    ID : 9
    Format : UTF-8
    Codec ID : S_TEXT/UTF8
    Codec ID/Info : UTF-8 Plain Text
    Duration : 1 h 32 min
    Bit rate : 52 b/s
    Count of elements : 1255
    Stream size : 35.2 KiB (0%)
    Language : Spanish
    Default : No
    Forced : No
    Text #7
    ID : 10
    Format : UTF-8
    Codec ID : S_TEXT/UTF8
    Codec ID/Info : UTF-8 Plain Text
    Duration : 1 h 32 min
    Bit rate : 50 b/s
    Count of elements : 1212
    Stream size : 34.2 KiB (0%)
    Language : Italian
    Default : No
    Forced : No


    _________________
    Показать сообщения:    
    Главная  Кинофильмы  Зарубежные кинофильмы  HD

    Текущее время: 07-Дек 16:43

    Часовой пояс: UTC + 5



    Вы не можете начинать темы
    Вы не можете отвечать на сообщения
    Вы не можете редактировать свои сообщения
    Вы не можете удалять свои сообщения
    Вы не можете голосовать в опросах
    Вы не можете прикреплять файлы к сообщениям
    Вы не можете скачивать файлы