Присягнувшая тьме / The Convent (Пол Хайет / Paul Hyett) [2018, Ужасы, история, BDRip-AVC] iTunes :: UZTOR.PW Лучший трекер в зоне TAS-IX!
Регистрация ·
Имя: Пароль:  
· Забыли пароль?
Уважаемые гости сайта! Добро Пожаловать на наш торрент трекер,где Вы можете бесплатно скачать любой Софт,Фильмы,Музыку и многое другое! А так же постоянно ведется набор модераторов и релизеров. Зарегистрируйтесь сейчас, чтобы получить доступ ко всем функциям. После регистрации или входа на сайт вы сможете создавать темы, отвечать на сообщения и скачивать файлы.

Навигация по Торрент раздачам и Форум

До нового обновления Торрент-Трекер осталось

 Присягнувшая тьме / The Convent (Пол Хайет / Paul Hyett) [2018, Ужасы, история, BDRip-AVC] iTunes

Главная  Кинофильмы  Зарубежные кинофильмы  HD-AVC
Статистика раздачи
Нет
 
     
 
 
Автор Сообщение
  • NuRKHoNoFF ®
  • Не в сети
  • 5064
  • Пол: Мужской

  • Стаж: 11 месяцев 20 дней

  • Сообщений: 918

  • Откуда: Каттакурган

  • Провайдер: TPS TPS

  • Карма: 583


  • Наличие запрета:

  • Награды: 17 (Подробнее)
    Активный релизер 1 (Количество: 1) Активный релизер 2 (Количество: 1) Активный релизер 3 (Количество: 1) Активный релизер 4 (Количество: 1) Активный релизер 5 (Количество: 1)
  • Создавать темы 07-Ноя-2019 01:48

    Присягнувшая тьме / The Convent -Год выпуска: 2018
    Страна: Великобритания
    Жанр: Ужасы, история
    Продолжительность: 01:20:54
    Перевод: Дублированный [iTunes]-Режиссер: Пол Хайет / Paul Hyett-В ролях: Ханна Артертон, Майкл Айронсайд, Рози Дэй, Клэр Хиггинс, Дилан Гвин, Киаран МакМенамин, Кэти Шеридан, Аня Марсон, Фредди Картер-Описание: В XVII веке молодая женщина Персефона предстает перед судом по обвинению в колдовстве, и как следствие — перед возможной казнью. Но девушку спасает вовремя вмешавшаяся преподобная мать, предложив осужденной провести оставшуюся жизнь в изолированном монастыре. Персефона думала, что в святом месте она посвятит себя молитвам и служению Господу, но по прибытии её начинают мучить страшные видения, а вместо очищения от грехов девушку ждет борьба за сохранение души.
    - -Качество: BDRip-AVC
    Формат: MKV
    Видео: 720x302 (2.40:1), 24 fps, x264 ~1 222 kbps avg, 0.234 bit/pixel
    Аудио: 48 kHz, HE-AAC, 2 ch, ~64 kbps avg-

    MediaInfo

    General
    Unique ID : 36715028487208197102441082471031158724 (0x1B9F0EA9B8DEBCCBFEFAACC1CD6EB7C4)
    Complete name : The.Convent.2018.BDRip(AVC).745Mb.OlLanDGroup.mkv
    Format : Matroska
    Format version : Version 4
    File size : 745 MiB
    Duration : 1 h 20 min
    Overall bit rate : 1 287 kb/s
    Movie name : The.Convent.2018.BDRip(AVC).745Mb.OlLanDGroup#Skandar#
    Encoded date : UTC 2019-11-06 19:31:06
    Writing application : mkvmerge v31.0.0 ('Dolores In A Shoestand') 64-bit
    Writing library : libebml v1.3.6 + libmatroska v1.4.9
    Video
    ID : 1
    Format : AVC
    Format/Info : Advanced Video Codec
    Format profile : High@L4.1
    Format settings : CABAC / 10 Ref Frames
    Format settings, CABAC : Yes
    Format settings, ReFrames : 10 frames
    Codec ID : V_MPEG4/ISO/AVC
    Duration : 1 h 20 min
    Bit rate : 1 222 kb/s
    Width : 720 pixels
    Height : 302 pixels
    Display aspect ratio : 2.40:1
    Frame rate mode : Constant
    Frame rate : 24.000 FPS
    Color space : YUV
    Chroma subsampling : 4:2:0
    Bit depth : 8 bits
    Scan type : Progressive
    Bits/(Pixel*Frame) : 0.234
    Stream size : 707 MiB (95%)
    Title : The.Convent.2018.BDRip(AVC).745Mb.OlLanDGroup#Skandar#
    Writing library : x264 core 146 r2538 121396c
    Encoding settings : cabac=1 / ref=10 / deblock=1:-3:-3 / analyse=0x3:0x133 / me=umh / subme=11 / psy=1 / psy_rd=0.97:0.05 / mixed_ref=1 / me_range=48 / chroma_me=1 / trellis=2 / 8x8dct=1 / cqm=0 / deadzone=21,11 / fast_pskip=0 / chroma_qp_offset=-3 / threads=6 / lookahead_threads=1 / sliced_threads=0 / nr=0 / decimate=0 / interlaced=0 / bluray_compat=0 / constrained_intra=0 / bframes=11 / b_pyramid=2 / b_adapt=2 / b_bias=0 / direct=3 / weightb=1 / open_gop=0 / weightp=2 / keyint=240 / keyint_min=23 / scenecut=40 / intra_refresh=0 / rc_lookahead=40 / rc=2pass / mbtree=0 / bitrate=1222 / ratetol=1.0 / qcomp=0.60 / qpmin=0 / qpmax=69 / qpstep=4 / cplxblur=20.0 / qblur=0.5 / vbv_maxrate=50000 / vbv_bufsize=62500 / nal_hrd=none / filler=0 / ip_ratio=1.40 / pb_ratio=1.30 / aq=1:1.00
    Language : Russian
    Default : Yes
    Forced : No
    Audio
    ID : 2
    Format : AAC LC SBR
    Format/Info : Advanced Audio Codec Low Complexity with Spectral Band Replication
    Commercial name : HE-AAC
    Format settings : Explicit
    Codec ID : A_AAC-2
    Duration : 1 h 20 min
    Bit rate : 64.0 kb/s
    Channel(s) : 2 channels
    Channel layout : L R
    Sampling rate : 48.0 kHz
    Frame rate : 23.438 FPS (2048 SPF)
    Compression mode : Lossy
    Delay relative to video : 31 ms
    Stream size : 37.0 MiB (5%)
    Title : iTunes
    Language : Russian
    Default : Yes
    Forced : No


    _________________
    Показать сообщения:    
    Главная  Кинофильмы  Зарубежные кинофильмы  HD-AVC

    Текущее время: 08-Дек 01:11

    Часовой пояс: UTC + 5



    Вы не можете начинать темы
    Вы не можете отвечать на сообщения
    Вы не можете редактировать свои сообщения
    Вы не можете удалять свои сообщения
    Вы не можете голосовать в опросах
    Вы не можете прикреплять файлы к сообщениям
    Вы не можете скачивать файлы