Ибица / Ibiza (Арно Лемор / Arno Lemor) [2019, Комедия, WEB-DL 1080р] iTunes :: UZTOR.PW Лучший трекер в зоне TAS-IX!
Регистрация ·
Имя: Пароль:  
· Забыли пароль?
Уважаемые гости сайта! Добро Пожаловать на наш торрент трекер,где Вы можете бесплатно скачать любой Софт,Фильмы,Музыку и многое другое! А так же постоянно ведется набор модераторов и релизеров. Зарегистрируйтесь сейчас, чтобы получить доступ ко всем функциям. После регистрации или входа на сайт вы сможете создавать темы, отвечать на сообщения и скачивать файлы.

Навигация по Торрент раздачам и Форум

До нового обновления Торрент-Трекер осталось

 Ибица / Ibiza (Арно Лемор / Arno Lemor) [2019, Комедия, WEB-DL 1080р] iTunes

Главная  Кинофильмы  Зарубежные кинофильмы  HD
Статистика раздачи
Нет
 
     
 
 
Автор Сообщение
  • NuRKHoNoFF ®
  • Не в сети
  • 5064
  • Пол: Мужской

  • Стаж: 11 месяцев 23 дня

  • Сообщений: 921

  • Откуда: Каттакурган

  • Провайдер: TPS TPS

  • Карма: 583


  • Наличие запрета:

  • Награды: 17 (Подробнее)
    Активный релизер 1 (Количество: 1) Активный релизер 2 (Количество: 1) Активный релизер 3 (Количество: 1) Активный релизер 4 (Количество: 1) Активный релизер 5 (Количество: 1)
  • Создавать темы 06-Ноя-2019 23:55

    Ибица / Ibiza -Год выпуска: 2019
    Страна: Франция, Бельгия
    Жанр: Комедия
    Продолжительность: 01:26:03
    Перевод: Дублированный [iTunes]-Режиссер: Арно Лемор / Arno Lemor-В ролях: Кристиан Клавье, Халид Самата, Матильда Сенье, Леопольд Бухсбаум, Пили Груан, Джои Старр, Оливье Маршаль, Фредерик Бель, Луи-До де Ланкесэ, Виктор Уэртас-Описание: Как завоевать сердце новой подруги? Стать лучшим другом ее детей! Совместная поездка на курорт - отличное решение. Только если это... не Ибица!- -Качество: WEB-DL 1080p
    Формат: MKV
    Видео: AVC, 4688 Kb/s, 1920x804
    Аудио: AC3, 6 сh, 384 Kbps-

    MediaInfo

    General
    Unique ID : 190468968307488580367855134857287009510 (0x8F4AFD2C16C39E67B4F03467B68184E6)
    Complete name : Ibiza.2019.WEB.DL.1080p.ELETIR4KA.UNIONGANG.mkv
    Format : Matroska
    Format version : Version 4
    File size : 3.05 GiB
    Duration : 1 h 26 min
    Overall bit rate : 5 073 kb/s
    Encoded date : UTC 2019-11-06 10:05:11
    Writing application : mkvmerge v8.3.0 ('Over the Horizon') 64bit
    Writing library : libebml v1.3.1 + libmatroska v1.4.2
    Video
    ID : 1
    Format : AVC
    Format/Info : Advanced Video Codec
    Format profile : High@L4
    Format settings : CABAC / 5 Ref Frames
    Format settings, CABAC : Yes
    Format settings, ReFrames : 5 frames
    Format settings, GOP : N=1
    Codec ID : V_MPEG4/ISO/AVC
    Duration : 1 h 26 min
    Bit rate : 4 588 kb/s
    Width : 1 920 pixels
    Height : 804 pixels
    Display aspect ratio : 2.40:1
    Frame rate mode : Constant
    Frame rate : 24.000 FPS
    Color space : YUV
    Chroma subsampling : 4:2:0
    Bit depth : 8 bits
    Scan type : Progressive
    Bits/(Pixel*Frame) : 0.124
    Stream size : 2.76 GiB (90%)
    Title : ELEKTRI4KA.UNIONGANG
    Language : English
    Default : Yes
    Forced : No
    Color range : Limited
    Color primaries : BT.709
    Transfer characteristics : BT.709
    Matrix coefficients : BT.709
    Audio
    ID : 2
    Format : AC-3
    Format/Info : Audio Coding 3
    Commercial name : Dolby Digital
    Codec ID : A_AC3
    Duration : 1 h 26 min
    Bit rate mode : Constant
    Bit rate : 384 kb/s
    Channel(s) : 6 channels
    Channel layout : L R C LFE Ls Rs
    Sampling rate : 48.0 kHz
    Frame rate : 31.250 FPS (1536 SPF)
    Bit depth : 16 bits
    Compression mode : Lossy
    Stream size : 236 MiB (8%)
    Title : iTunes
    Language : Russian
    Service kind : Complete Main
    Default : Yes
    Forced : No


    _________________
    Показать сообщения:    
    Главная  Кинофильмы  Зарубежные кинофильмы  HD

    Текущее время: 10-Дек 21:43

    Часовой пояс: UTC + 5



    Вы не можете начинать темы
    Вы не можете отвечать на сообщения
    Вы не можете редактировать свои сообщения
    Вы не можете удалять свои сообщения
    Вы не можете голосовать в опросах
    Вы не можете прикреплять файлы к сообщениям
    Вы не можете скачивать файлы