Как отмыть миллион / Падение американской империи / La chute de l'empire américain (Дени Аркан / Denys Arcand) [2018, комедия, криминал, BDRip 1080p] iTunes :: UZTOR.PW Лучший трекер в зоне TAS-IX!
Регистрация ·
Имя: Пароль:  
· Забыли пароль?
Уважаемые гости сайта! Добро Пожаловать на наш торрент трекер,где Вы можете бесплатно скачать любой Софт,Фильмы,Музыку и многое другое! А так же постоянно ведется набор модераторов и релизеров. Зарегистрируйтесь сейчас, чтобы получить доступ ко всем функциям. После регистрации или входа на сайт вы сможете создавать темы, отвечать на сообщения и скачивать файлы.

Навигация по Торрент раздачам и Форум

До нового обновления Торрент-Трекер осталось

 Как отмыть миллион / Падение американской империи / La chute de l'empire américain (Дени Аркан / Denys Arcand) [2018, комедия, криминал, BDRip 1080p] iTunes

Главная  Кинофильмы  Зарубежные кинофильмы  HD
Статистика раздачи
Нет
 
     
 
 
Автор Сообщение
  • -InVoKeR- ®
  • Не в сети
  • 5057
  • VIP пользователь

  • Пол: Мужской

  • Стаж: 1 год

  • Сообщений: 423

  • Откуда: uztor.pw

  • Провайдер: UzOnline UzOnline

  • Тарифный план: Unlim 4 (Мир: 4 Мбит/с, Tas-ix: 100Мбит/с)

  • Steam: 76561198442747843

  • Telegram: i_Invoker

  • Карма: 1128


  • Наличие запрета:

  • Награды: 22 (Подробнее)
    Admin (Количество: 1) Авторитет (Количество: 1) Активный релизер 1 (Количество: 1) Активный релизер 2 (Количество: 1) Активный сидер 1 (Количество: 1)
  • Создавать темы 31-Окт-2019 14:31

    Как отмыть миллион
    Падение американской империи

    La chute de l'empire américain
    --Год выпуска: 2018
    Страна: Канада
    Студия: Cinémaginaire Inc.
    Жанр: комедия, криминал
    Продолжительность: 02:07:42
    Перевод: Закадровый многоголосый iTunes-Режиссер: Дени Аркан / Denys Arcand-В ролях: Александр Ландри, Мари-Пьер Морен, Реми Жирар, Максим Рой, Эрик Брюно, Жюльетт Госслен, Венсан Леклер, Клод Лего, Пьер Курци, Роз-Мари Перро-Описание: Скромняга Пьер-Поль, обладатель ученой степени, вынужден подрабатывать курьером. В один прекрасный день, доставляя очередную посылку, он первым оказывается на месте преступления и становится обладателем миллионного куша. Искушение решить все житейские проблемы велико. И пока он размышляет вернуть или присвоить огромную сумму наличных, его начинают преследовать бандиты, а полиция не спускает с него глаз. Спасаясь и от тех, и от других, интеллектуал Пьер-Поль встречает роковую красотку...-Качество: BDRip 1080p
    Формат: MKV
    Видео: MPEG-4 AVC, 1920x804, 10.2 Mbit/s, 23.976 fps
    Аудио #01: 48 kHz, AC3, 5.1, 384 Kbps | iTunes | RUS | pic
    Аудио #02: 48 kHz, AC3, 5.1, 640 Kbps | Оригинал | FRE | pic
    Субтитры: Нет--

    MI

    General
    Unique ID : 75722374080120907350063118463766691583 (0x38F79948FF4BEAEB0D0AC61C9F2CFEFF)
    Complete name : La.Chute.De.L.Empire.Americain.2018.BDRip.1080p.seleZen.mkv
    Format : Matroska
    Format version : Version 4
    File size : 10.0 GiB
    Duration : 2 h 7 min
    Overall bit rate : 11.2 Mb/s
    Movie name : La chute de l'empire américain 2018 from селезень
    Encoded date : UTC 2019-10-30 22:40:53
    Writing application : mkvmerge v22.0.0 ('At The End Of The World') 64-bit
    Writing library : libebml v1.3.5 + libmatroska v1.4.8
    Video
    ID : 1
    Format : AVC
    Format/Info : Advanced Video Codec
    Format profile : High@L4.1
    Format settings : CABAC / 5 Ref Frames
    Format settings, CABAC : Yes
    Format settings, Reference fra : 5 frames
    Codec ID : V_MPEG4/ISO/AVC
    Duration : 2 h 7 min
    Bit rate : 10.2 Mb/s
    Width : 1 920 pixels
    Height : 804 pixels
    Display aspect ratio : 2.40:1
    Frame rate mode : Constant
    Frame rate : 23.976 (24000/1001) FPS
    Color space : YUV
    Chroma subsampling : 4:2:0
    Bit depth : 8 bits
    Scan type : Progressive
    Bits/(Pixel*Frame) : 0.276
    Stream size : 9.11 GiB (91%)
    Title : Encoded by seleZen
    Writing library : x264 core 148 r2705kMod 3f5ed56
    Encoding settings : cabac=1 / ref=5 / deblock=1:-2:-2 / analyse=0x3:0x113 / me=umh / subme=11 / psy=1 / fade_compensate=0.00 / psy_rd=1.00:0.00 / mixed_ref=1 / me_range=32 / chroma_me=1 / trellis=2 / 8x8dct=1 / cqm=0 / deadzone=21,11 / fast_pskip=0 / chroma_qp_offset=-2 / threads=24 / lookahead_threads=6 / sliced_threads=0 / nr=0 / decimate=0 / interlaced=0 / bluray_compat=0 / constrained_intra=0 / fgo=0 / bframes=10 / b_pyramid=2 / b_adapt=2 / b_bias=0 / direct=3 / weightb=1 / open_gop=0 / weightp=2 / keyint=240 / keyint_min=23 / scenecut=40 / intra_refresh=0 / rc_lookahead=50 / rc=2pass / mbtree=0 / bitrate=10217 / ratetol=1.0 / qcomp=0.60 / qpmin=0 / qpmax=51 / qpstep=4 / cplxblur=20.0 / qblur=0.5 / vbv_maxrate=50000 / vbv_bufsize=62500 / nal_hrd=none / filler=0 / ip_ratio=1.40 / pb_ratio=1.30 / aq=3:0.80
    Language : English
    Default : Yes
    Forced : No
    Audio #1
    ID : 2
    Format : AC-3
    Format/Info : Audio Coding 3
    Commercial name : Dolby Digital
    Codec ID : A_AC3
    Duration : 2 h 7 min
    Bit rate mode : Constant
    Bit rate : 384 kb/s
    Channel(s) : 6 channels
    Channel layout : L R C LFE Ls Rs
    Sampling rate : 48.0 kHz
    Frame rate : 31.250 FPS (1536 SPF)
    Compression mode : Lossy
    Stream size : 351 MiB (3%)
    Title : iTunes
    Language : Russian
    Service kind : Complete Main
    Default : Yes
    Forced : Yes
    Audio #2
    ID : 3
    Format : AC-3
    Format/Info : Audio Coding 3
    Commercial name : Dolby Digital
    Codec ID : A_AC3
    Duration : 2 h 7 min
    Bit rate mode : Constant
    Bit rate : 640 kb/s
    Channel(s) : 6 channels
    Channel layout : L R C LFE Ls Rs
    Sampling rate : 48.0 kHz
    Frame rate : 31.250 FPS (1536 SPF)
    Compression mode : Lossy
    Stream size : 585 MiB (6%)
    Title : Original
    Language : French
    Service kind : Complete Main
    Default : No
    Forced : No
    Menu
    00:00:00.000 : fr:00:00:00.000
    00:05:55.355 : fr:00:05:55.355
    00:13:12.458 : fr:00:13:12.458
    00:19:00.056 : fr:00:19:00.056
    00:23:17.479 : fr:00:23:17.479
    00:28:31.418 : fr:00:28:31.418
    00:37:02.220 : fr:00:37:02.220
    00:47:08.367 : fr:00:47:08.367
    00:52:44.078 : fr:00:52:44.078
    00:59:20.390 : fr:00:59:20.390
    01:05:57.954 : fr:01:05:57.954
    01:13:09.885 : fr:01:13:09.885
    01:21:15.370 : fr:01:21:15.370
    01:29:58.059 : fr:01:29:58.059
    01:34:21.906 : fr:01:34:21.906
    01:39:28.379 : fr:01:39:28.379
    01:44:17.334 : fr:01:44:17.334
    01:50:55.440 : fr:01:50:55.440
    01:56:52.505 : fr:01:56:52.505
    02:01:48.593 : fr:02:01:48.593

    _________________
    Показать сообщения:    
    Главная  Кинофильмы  Зарубежные кинофильмы  HD

    Текущее время: 12-Дек 00:30

    Часовой пояс: UTC + 5



    Вы не можете начинать темы
    Вы не можете отвечать на сообщения
    Вы не можете редактировать свои сообщения
    Вы не можете удалять свои сообщения
    Вы не можете голосовать в опросах
    Вы не можете прикреплять файлы к сообщениям
    Вы не можете скачивать файлы