Измени или умри / An Affair to Die For (Виктор Гарсия / Víctor García) [2019, Триллер, WEB-DL 1080p] iTunes :: UZTOR.PW Лучший трекер в зоне TAS-IX!
Регистрация ·
Имя: Пароль:  
· Забыли пароль?
Уважаемые гости сайта! Добро Пожаловать на наш торрент трекер,где Вы можете бесплатно скачать любой Софт,Фильмы,Музыку и многое другое! А так же постоянно ведется набор модераторов и релизеров. Зарегистрируйтесь сейчас, чтобы получить доступ ко всем функциям. После регистрации или входа на сайт вы сможете создавать темы, отвечать на сообщения и скачивать файлы.

Навигация по Торрент раздачам и Форум

До нового обновления Торрент-Трекер осталось

 Измени или умри / An Affair to Die For (Виктор Гарсия / Víctor García) [2019, Триллер, WEB-DL 1080p] iTunes

Главная  Кинофильмы  Зарубежные кинофильмы  HD
Статистика раздачи
Нет
 
     
 
 
Автор Сообщение
  • -InVoKeR- ®
  • Не в сети
  • 5057
  • VIP пользователь

  • Пол: Мужской

  • Стаж: 1 год

  • Сообщений: 424

  • Откуда: uztor.pw

  • Провайдер: UzOnline UzOnline

  • Тарифный план: Unlim 4 (Мир: 4 Мбит/с, Tas-ix: 100Мбит/с)

  • Steam: 76561198442747843

  • Telegram: i_Invoker

  • Карма: 1128


  • Наличие запрета:

  • Награды: 22 (Подробнее)
    Admin (Количество: 1) Авторитет (Количество: 1) Активный релизер 1 (Количество: 1) Активный релизер 2 (Количество: 1) Активный сидер 1 (Количество: 1)
  • Создавать темы 31-Окт-2019 14:24

    Измени или умри / An Affair to Die For--Год выпуска: 2019
    Страна: Испания, Италия
    Жанр: Триллер
    Продолжительность: 01:22:44
    Перевод: Закадровый многоголосый iTunes-Режиссер: Виктор Гарсия / Víctor García-В ролях: Клэр Форлани, Джейк Эйбел, Титус Уэлливер, Нэйтан Купер, Мелина Мэтьюз-Описание: Тайное свидание в дорогой гостинице. Жена изменяет своему мужу. Муж изменяет своей жене. Казалось бы, ничего необычного. Но что, если всё пойдёт не так?-Качество: WEB-DL 1080p
    Формат: MKV
    Видео: AVC, 1920x1080, ~3606 kbps, 23,976 fps
    Аудио #1: AC3, 48 kHz, 384 kbps, 6 ch, RUS, iTunes
    Аудио #2: AC3+, 48 kHz, 640 kbps, 6 ch, ENG, Original
    Субтитры: английские--

    MI

    General
    Unique ID : 197590739252438308107277990967024236649 (0x94A69796E1257D4296D9EC8F2D8B3869)
    Complete name : AAT_DIE_FOR_2019_WEB-DL_1080p-BLUEBIRD.mkv
    Format : Matroska
    Format version : Version 4
    File size : 2.73 GiB
    Duration : 1 h 22 min
    Overall bit rate mode : Variable
    Overall bit rate : 4 724 kb/s
    Movie name : AAT_DIE_FOR_2019_WEB-DL_1080p-BLUEBIRD
    Encoded date : UTC 2019-10-30 19:30:41
    Writing application : mkvmerge v6.9.1 ('Blue Panther') 32bit built on Apr 18 2014 18:15:44
    Writing library : libebml v1.3.0 + libmatroska v1.4.1
    Cover : Yes
    Attachments : cover1.png
    Video
    ID : 1
    Format : AVC
    Format/Info : Advanced Video Codec
    Format profile : High@L4
    Format settings : CABAC / 4 Ref Frames
    Format settings, CABAC : Yes
    Format settings, Reference fra : 4 frames
    Codec ID : V_MPEG4/ISO/AVC
    Duration : 1 h 22 min
    Bit rate mode : Variable
    Bit rate : 3 606 kb/s
    Maximum bit rate : 20.0 Mb/s
    Width : 1 920 pixels
    Height : 1 080 pixels
    Display aspect ratio : 16:9
    Frame rate mode : Constant
    Frame rate : 23.976 (24000/1001) FPS
    Color space : YUV
    Chroma subsampling : 4:2:0
    Bit depth : 8 bits
    Scan type : Progressive
    Bits/(Pixel*Frame) : 0.073
    Stream size : 2.08 GiB (76%)
    Title : AAT_DIE_FOR_2019_WEB-DL_1080p-BLUEBIRD
    Writing library : x264 core 148 r2715 7e75228
    Encoding settings : cabac=1 / ref=4 / deblock=1:0:0 / analyse=0x3:0x111 / me=umh / subme=10 / psy=1 / psy_rd=1.00:0.00 / mixed_ref=1 / me_range=120 / chroma_me=1 / trellis=2 / 8x8dct=1 / cqm=0 / deadzone=21,11 / fast_pskip=1 / chroma_qp_offset=-2 / threads=6 / lookahead_threads=1 / sliced_threads=0 / nr=0 / decimate=1 / interlaced=0 / bluray_compat=0 / stitchable=1 / constrained_intra=0 / bframes=16 / b_pyramid=2 / b_adapt=2 / b_bias=0 / direct=3 / weightb=1 / open_gop=0 / weightp=2 / keyint=240 / keyint_min=121 / scenecut=0 / intra_refresh=0 / rc_lookahead=240 / rc=crf / mbtree=1 / crf=16.0 / qcomp=0.50 / qpmin=6 / qpmax=51 / qpstep=4 / vbv_maxrate=20000 / vbv_bufsize=25000 / crf_max=0.0 / nal_hrd=vbr / filler=0 / ip_ratio=1.40 / aq=1:0.80
    Default : Yes
    Forced : No
    Audio #1
    ID : 2
    Format : AC-3
    Format/Info : Audio Coding 3
    Commercial name : Dolby Digital
    Codec ID : A_AC3
    Duration : 1 h 22 min
    Bit rate mode : Constant
    Bit rate : 384 kb/s
    Channel(s) : 6 channels
    Channel layout : L R C LFE Ls Rs
    Sampling rate : 48.0 kHz
    Frame rate : 31.250 FPS (1536 SPF)
    Compression mode : Lossy
    Stream size : 227 MiB (8%)
    Title : [DUB] DD 5.1 @ 384 kbps (iTunes)
    Language : Russian
    Service kind : Complete Main
    Default : Yes
    Forced : No
    Audio #2
    ID : 3
    Format : E-AC-3
    Format/Info : Enhanced AC-3
    Commercial name : Dolby Digital Plus
    Codec ID : A_EAC3
    Duration : 1 h 22 min
    Bit rate mode : Constant
    Bit rate : 640 kb/s
    Channel(s) : 6 channels
    Channel layout : L R C LFE Ls Rs
    Sampling rate : 48.0 kHz
    Frame rate : 31.250 FPS (1536 SPF)
    Compression mode : Lossy
    Stream size : 379 MiB (14%)
    Title : [ORIGINAL] DD+ 5.1 @ 640 kbps (Amazon)
    Language : English
    Service kind : Complete Main
    Default : No
    Forced : No
    Text
    ID : 4
    Format : UTF-8
    Codec ID : S_TEXT/UTF8
    Codec ID/Info : UTF-8 Plain Text
    Title : SDH
    Language : English
    Default : No
    Forced : No

    _________________
    Показать сообщения:    
    Главная  Кинофильмы  Зарубежные кинофильмы  HD

    Текущее время: 14-Дек 07:51

    Часовой пояс: UTC + 5



    Вы не можете начинать темы
    Вы не можете отвечать на сообщения
    Вы не можете редактировать свои сообщения
    Вы не можете удалять свои сообщения
    Вы не можете голосовать в опросах
    Вы не можете прикреплять файлы к сообщениям
    Вы не можете скачивать файлы