Мёртвые не умирают / The Dead Don't Die (Джим Джармуш / Jim Jarmusch) [2019, Ужасы, фэнтези, комедия, BDRip-HEVC 1080p 10Bit] iTunes :: UZTOR.PW Лучший трекер в зоне TAS-IX!
Регистрация ·
Имя: Пароль:  
· Забыли пароль?
Уважаемые гости сайта! Добро Пожаловать на наш торрент трекер,где Вы можете бесплатно скачать любой Софт,Фильмы,Музыку и многое другое! А так же постоянно ведется набор модераторов и релизеров. Зарегистрируйтесь сейчас, чтобы получить доступ ко всем функциям. После регистрации или входа на сайт вы сможете создавать темы, отвечать на сообщения и скачивать файлы.

Навигация по Торрент раздачам и Форум

До нового обновления Торрент-Трекер осталось

 Мёртвые не умирают / The Dead Don't Die (Джим Джармуш / Jim Jarmusch) [2019, Ужасы, фэнтези, комедия, BDRip-HEVC 1080p 10Bit] iTunes

Главная  Кинофильмы  Кинофильмы (HEVC)  Новинки
Статистика раздачи
Нет
 
     
 
 
Автор Сообщение
  • -InVoKeR- ®
  • В сети
  • 5057
  • VIP пользователь

  • Пол: Мужской

  • Стаж: 1 год

  • Сообщений: 422

  • Откуда: uztor.pw

  • Провайдер: UzOnline UzOnline

  • Тарифный план: Unlim 4 (Мир: 4 Мбит/с, Tas-ix: 100Мбит/с)

  • Steam: 76561198442747843

  • Telegram: i_Invoker

  • Карма: 1128


  • Наличие запрета:

  • Награды: 22 (Подробнее)
    Admin (Количество: 1) Авторитет (Количество: 1) Активный релизер 1 (Количество: 1) Активный релизер 2 (Количество: 1) Активный сидер 1 (Количество: 1)
  • Создавать темы 31-Окт-2019 14:02

    Мёртвые не умирают / The Dead Don't Die--Год выпуска: 2019
    Жанр: Ужасы, фэнтези, комедия
    Страна: США, Швеция
    Продолжительность: 01:44:28
    Перевод: Дублированный | iTunes
    Субтитры: русские (Forced, full (Enigma)), английские-Режиссер: Джим Джармуш / Jim Jarmusch-В ролях: Адам Драйвер, Билл Мюррей, Клоэ Севиньи, Тильда Суинтон, Стив Бушеми, Селена Гомес, RZA, Алисса Мария Апп, Карл Арчилези, Моника Эйрс-Описание: В маленьком американском городке что-то пошло не так. День наступает ночью, домашние животные убегают в лес, по радио играет одна и та же песня. Ученые, как обычно, не могут ничего толком объяснить. Хотя даже обывателю давно понятно, что это такое. И жители города как никогда готовы побороться за свою плоть!-Качество: BDRip-HEVC 1080p
    Формат: MKV
    Видео: HEVC 10 bit, 1920x1080, 1581 Kbps
    Аудио 1: AC3, 6 ch, 384 Kbps | Dub
    Аудио 2: HE-AAC, 6 ch, 202 Kbps | Eng--

    MI

    General
    Unique ID : 3909435973410876482504539255797752935 (0x2F0EE1336D6D9CF84061BED04D8A467)
    Complete name : The.Dead.Don't.Die.2019.BDRip 1080p HEVC 10bit.mkv
    Format : Matroska
    Format version : Version 4
    File size : 1.58 GiB
    Duration : 1 h 44 min
    Overall bit rate : 2 169 kb/s
    Movie name : The.Dead.Don't.Die.2019.BDRip 1080p HEVC 10bit.Alltor.mkv
    Encoded date : UTC 2019-10-30 15:45:52
    Writing application : mkvmerge v35.0.0 ('All The Love In The World') 64-bit
    Writing library : libebml v1.3.9 + libmatroska v1.5.2
    Video
    ID : 1
    Format : HEVC
    Format/Info : High Efficiency Video Coding
    Format profile : Main 10@L4@Main
    Codec ID : V_MPEGH/ISO/HEVC
    Duration : 1 h 44 min
    Bit rate : 1 581 kb/s
    Width : 1 920 pixels
    Height : 1 080 pixels
    Display aspect ratio : 16:9
    Frame rate mode : Constant
    Frame rate : 23.976 (24000/1001) FPS
    Color space : YUV
    Chroma subsampling : 4:2:0
    Bit depth : 10 bits
    Bits/(Pixel*Frame) : 0.032
    Stream size : 1.15 GiB (73%)
    Default : Yes
    Forced : No
    Audio #1
    ID : 2
    Format : AC-3
    Format/Info : Audio Coding 3
    Commercial name : Dolby Digital
    Codec ID : A_AC3
    Duration : 1 h 44 min
    Bit rate mode : Constant
    Bit rate : 384 kb/s
    Channel(s) : 6 channels
    Channel layout : L R C LFE Ls Rs
    Sampling rate : 48.0 kHz
    Frame rate : 31.250 FPS (1536 SPF)
    Bit depth : 16 bits
    Compression mode : Lossy
    Stream size : 287 MiB (18%)
    Title : Dub | iTunes
    Language : Russian
    Service kind : Complete Main
    Default : Yes
    Forced : No
    Audio #2
    ID : 3
    Format : AAC LC SBR
    Format/Info : Advanced Audio Codec Low Complexity with Spectral Band Replication
    Commercial name : HE-AAC
    Format settings : Explicit
    Codec ID : A_AAC-2
    Duration : 1 h 44 min
    Bit rate : 202 kb/s
    Channel(s) : 6 channels
    Channel layout : C L R Ls Rs LFE
    Sampling rate : 48.0 kHz
    Frame rate : 23.438 FPS (2048 SPF)
    Compression mode : Lossy
    Delay relative to video : 23 ms
    Stream size : 151 MiB (9%)
    Title : Original
    Language : English
    Default : No
    Forced : No
    Text #1
    ID : 4
    Format : UTF-8
    Codec ID : S_TEXT/UTF8
    Codec ID/Info : UTF-8 Plain Text
    Duration : 1 h 43 min
    Bit rate : 7 b/s
    Count of elements : 113
    Stream size : 6.07 KiB (0%)
    Title : Forced (Enigma)
    Language : Russian
    Default : No
    Forced : No
    Text #2
    ID : 5
    Format : UTF-8
    Codec ID : S_TEXT/UTF8
    Codec ID/Info : UTF-8 Plain Text
    Duration : 1 h 42 min
    Bit rate : 72 b/s
    Count of elements : 1272
    Stream size : 55.0 KiB (0%)
    Title : Full (Enigma)
    Language : Russian
    Default : No
    Forced : No
    Text #3
    ID : 6
    Format : UTF-8
    Codec ID : S_TEXT/UTF8
    Codec ID/Info : UTF-8 Plain Text
    Duration : 1 h 41 min
    Bit rate : 43 b/s
    Count of elements : 1143
    Stream size : 32.3 KiB (0%)
    Language : English
    Default : No
    Forced : No

    _________________
    Показать сообщения:    
    Главная  Кинофильмы  Кинофильмы (HEVC)  Новинки

    Текущее время: 10-Дек 18:29

    Часовой пояс: UTC + 5



    Вы не можете начинать темы
    Вы не можете отвечать на сообщения
    Вы не можете редактировать свои сообщения
    Вы не можете удалять свои сообщения
    Вы не можете голосовать в опросах
    Вы не можете прикреплять файлы к сообщениям
    Вы не можете скачивать файлы