Герой (Карен Оганесян) [2019, Триллер, комедия, боевик, WEB-DL 1080р] iTunes :: UZTOR.PW Лучший трекер в зоне TAS-IX!
Регистрация ·
Имя: Пароль:  
· Забыли пароль?
Уважаемые гости сайта! Добро Пожаловать на наш торрент трекер,где Вы можете бесплатно скачать любой Софт,Фильмы,Музыку и многое другое! А так же постоянно ведется набор модераторов и релизеров. Зарегистрируйтесь сейчас, чтобы получить доступ ко всем функциям. После регистрации или входа на сайт вы сможете создавать темы, отвечать на сообщения и скачивать файлы.

Навигация по Торрент раздачам и Форум

До нового обновления Торрент-Трекер осталось

 Герой (Карен Оганесян) [2019, Триллер, комедия, боевик, WEB-DL 1080р] iTunes

Главная  Кинофильмы  Российские кинофильмы  HD
Статистика раздачи
Нет
 
     
 
 
Автор Сообщение
  • -InVoKeR- ®
  • Не в сети
  • 5057
  • VIP пользователь

  • Пол: Мужской

  • Стаж: 1 год

  • Сообщений: 422

  • Откуда: uztor.pw

  • Провайдер: UzOnline UzOnline

  • Тарифный план: Unlim 4 (Мир: 4 Мбит/с, Tas-ix: 100Мбит/с)

  • Steam: 76561198442747843

  • Telegram: i_Invoker

  • Карма: 1128


  • Наличие запрета:

  • Награды: 22 (Подробнее)
    Admin (Количество: 1) Авторитет (Количество: 1) Активный релизер 1 (Количество: 1) Активный релизер 2 (Количество: 1) Активный сидер 1 (Количество: 1)
  • Создавать темы 29-Окт-2019 21:48

    Герой--Год выпуска: 2019
    Страна: Россия
    Жанр: триллер, комедия, боевик, криминал
    Продолжительность: 01:55:43
    Язык: Русский iTunes
    Субтитры: Русские (вшитые) на иностранную речь-Режиссер: Карен Оганесян-В ролях: Александр Петров, Владимир Машков, Светлана Ходченкова, Ян Алабушев, Константин Лавроненко, Марина Петренко, Анастасия Тодореску, Тобиас Аспелин, Адам Джеймс Маскин-Описание: 15 лет назад Андрей под руководством своего отца, полковника Родина, прошел обучение в секретной спецшколе, где из подростков готовили агентов Службы внешней разведки. Когда экспериментальный проект закрыли, Андрей "сжёг мосты", остался в Европе и старался не вспоминать о прошлом. Но однажды ему звонит отец, которого все считали погибшим. Тот сообщает, что на Андрея открыта охота, но кто решил его уничтожить - неизвестно. Спасаясь бегством, он находит Машу, с которой учился в спецшколе. Андрею предстоит пройти через любовь и предательство и узнать об истинных масштабах беспощадной шпионской игры, в которую он оказался втянут поневоле.-Качество: WEB-DL1080р
    Формат: MKV
    Видео: AVC, 4 516 kb/s, 1920x804
    Аудио: AC3, 6 ch, 384 kbps--

    MI

    General
    Unique ID : 170235280519613153821655473350215410029 (0x80121F57DC2E1BA27FCA9A74C5A7216D)
    Complete name : C:\Users\Илья\Desktop\GEROY (2019) WEB-DL 1080p.mkv
    Format : Matroska
    Format version : Version 4
    File size : 3.96 GiB
    Duration : 1 h 55 min
    Overall bit rate : 4 902 kb/s
    Movie name : GEROY (2019) WEB-DL 1080p
    Encoded date : UTC 2019-10-28 19:56:30
    Writing application : mkvmerge v38.0.0 ('The Silent Type') 64-bit
    Writing library : libebml v1.3.9 + libmatroska v1.5.2
    Cover : Yes
    Attachments : cover.jpg
    Video
    ID : 1
    Format : AVC
    Format/Info : Advanced Video Codec
    Format profile : High@L4
    Format settings : CABAC / 5 Ref Frames
    Format settings, CABAC : Yes
    Format settings, Reference : 5 frames
    Codec ID : V_MPEG4/ISO/AVC
    Duration : 1 h 55 min
    Bit rate : 4 516 kb/s
    Width : 1 920 pixels
    Height : 804 pixels
    Display aspect ratio : 2.40:1
    Frame rate mode : Constant
    Frame rate : 25.000 FPS
    Color space : YUV
    Chroma subsampling : 4:2:0
    Bit depth : 8 bits
    Scan type : Progressive
    Bits/(Pixel*Frame) : 0.117
    Stream size : 3.65 GiB (92%)
    Title : GEROY (2019) WEB-DL 1080p
    Language : English
    Default : Yes
    Forced : No
    Color range : Limited
    Color primaries : BT.709
    Transfer characteristics : BT.709
    Matrix coefficients : BT.709
    Audio
    ID : 2
    Format : AC-3
    Format/Info : Audio Coding 3
    Commercial name : Dolby Digital
    Codec ID : A_AC3
    Duration : 1 h 55 min
    Bit rate mode : Constant
    Bit rate : 384 kb/s
    Channel(s) : 6 channels
    Channel layout : L R C LFE Ls Rs
    Sampling rate : 48.0 kHz
    Frame rate : 31.250 FPS (1536 SPF)
    Bit depth : 16 bits
    Compression mode : Lossy
    Delay relative to video : -40 ms
    Stream size : 318 MiB (8%)
    Title : iTunes | GEROY (2019) WEB-DL 1080p
    Language : Russian
    Service kind : Complete Main
    Default : Yes
    Forced : No
    Menu
    00:00:00.000 : en:Глава 1
    00:08:07.120 : en:Глава 2
    00:16:04.799 : en:Глава 3
    00:23:50.719 : en:Глава 4
    00:31:17.319 : en:Глава 5
    00:38:27.799 : en:Глава 6
    00:46:04.679 : en:Глава 7
    00:54:12.238 : en:Глава 8
    01:01:21.437 : en:Глава 9
    01:09:38.196 : en:Глава 10
    01:17:53.196 : en:Глава 11
    01:24:54.756 : en:Глава 12
    01:32:16.356 : en:Глава 13
    01:39:37.435 : en:Глава 14
    01:46:51.674 : en:Глава 15

    _________________
    Показать сообщения:    
    Главная  Кинофильмы  Российские кинофильмы  HD

    Текущее время: 10-Дек 21:35

    Часовой пояс: UTC + 5



    Вы не можете начинать темы
    Вы не можете отвечать на сообщения
    Вы не можете редактировать свои сообщения
    Вы не можете удалять свои сообщения
    Вы не можете голосовать в опросах
    Вы не можете прикреплять файлы к сообщениям
    Вы не можете скачивать файлы