Герой (Карен Оганесян) [2019, Триллер, комедия, боевик, WEB-DLRip-AVC] iTunes :: UZTOR.PW Лучший трекер в зоне TAS-IX!
Регистрация ·
Имя: Пароль:  
· Забыли пароль?
Уважаемые гости сайта! Добро Пожаловать на наш торрент трекер,где Вы можете бесплатно скачать любой Софт,Фильмы,Музыку и многое другое! А так же постоянно ведется набор модераторов и релизеров. Зарегистрируйтесь сейчас, чтобы получить доступ ко всем функциям. После регистрации или входа на сайт вы сможете создавать темы, отвечать на сообщения и скачивать файлы.

Навигация по Торрент раздачам и Форум

До нового обновления Торрент-Трекер осталось

 Герой (Карен Оганесян) [2019, Триллер, комедия, боевик, WEB-DLRip-AVC] iTunes

Главная  Кинофильмы  Российские кинофильмы  HD-AVC
Статистика раздачи
Нет
 
     
 
 
Автор Сообщение
  • -InVoKeR- ®
  • Не в сети
  • 5057
  • VIP пользователь

  • Пол: Мужской

  • Стаж: 1 год

  • Сообщений: 424

  • Откуда: uztor.pw

  • Провайдер: UzOnline UzOnline

  • Тарифный план: Unlim 4 (Мир: 4 Мбит/с, Tas-ix: 100Мбит/с)

  • Steam: 76561198442747843

  • Telegram: i_Invoker

  • Карма: 1128


  • Наличие запрета:

  • Награды: 22 (Подробнее)
    Admin (Количество: 1) Авторитет (Количество: 1) Активный релизер 1 (Количество: 1) Активный релизер 2 (Количество: 1) Активный сидер 1 (Количество: 1)
  • Создавать темы 29-Окт-2019 21:41

    Герой--
    Год выпуска: 2019
    Страна: Россия
    Жанр: триллер, комедия, боевик, криминал
    Продолжительность: 01:55:43
    Язык: Русский iTunes
    Субтитры: Русские (вшитые) на иностранную речь-Режиссер: Карен Оганесян-В ролях: Александр Петров, Владимир Машков, Светлана Ходченкова, Ян Алабушев, Константин Лавроненко, Марина Петренко, Анастасия Тодореску, Тобиас Аспелин, Адам Джеймс Маскин-Описание: 15 лет назад Андрей под руководством своего отца, полковника Родина, прошел обучение в секретной спецшколе, где из подростков готовили агентов Службы внешней разведки. Когда экспериментальный проект закрыли, Андрей "сжёг мосты", остался в Европе и старался не вспоминать о прошлом. Но однажды ему звонит отец, которого все считали погибшим. Тот сообщает, что на Андрея открыта охота, но кто решил его уничтожить - неизвестно. Спасаясь бегством, он находит Машу, с которой учился в спецшколе. Андрею предстоит пройти через любовь и предательство и узнать об истинных масштабах беспощадной шпионской игры, в которую он оказался втянут поневоле.-Качество: WEB-DLRip-AVC
    Формат: MKV
    Видео: AVC, 1450 kb/s, 1024x432
    Аудио: AC3, 6 ch, 384 kbps--

    MI

    General
    Unique ID : 196252776485240758733285558912106402127 (0x93A4E8EE9085E05E9219D0ED3DA0914F)
    Complete name : D:\ТОРРЕНТ\GEROY (2019) WEB-DL-AVC.mkv
    Format : Matroska
    Format version : Version 4
    File size : 1.46 GiB
    Duration : 1 h 55 min
    Overall bit rate : 1 802 kb/s
    Movie name : GEROY (2019) WEB-DL 1080p
    Encoded date : UTC 2019-10-28 23:48:10
    Writing application : mkvmerge v9.7.1 ('Pandemonium') 32bit
    Writing library : libebml v1.3.4 + libmatroska v1.4.5
    Cover : Yes
    Attachments : cover.jpg
    Video
    ID : 1
    Format : AVC
    Format/Info : Advanced Video Codec
    Format profile : High@L3.1
    Format settings : CABAC / 4 Ref Frames
    Format settings, CABAC : Yes
    Format settings, Reference : 4 frames
    Codec ID : V_MPEG4/ISO/AVC
    Duration : 1 h 55 min
    Bit rate : 1 450 kb/s
    Width : 1 024 pixels
    Height : 432 pixels
    Display aspect ratio : 2.40:1
    Original display aspect rat : 2.40:1
    Frame rate mode : Constant
    Frame rate : 25.000 FPS
    Color space : YUV
    Chroma subsampling : 4:2:0
    Bit depth : 8 bits
    Scan type : Progressive
    Bits/(Pixel*Frame) : 0.131
    Stream size : 1.14 GiB (79%)
    Writing library : x264 core 148 r2721M 72d53ab
    Encoding settings : cabac=1 / ref=2 / deblock=1:-1:-1 / analyse=0x3:0x113 / me=hex / subme=6 / psy=1 / psy_rd=1.00:0.00 / mixed_ref=1 / me_range=16 / chroma_me=1 / trellis=1 / 8x8dct=1 / cqm=0 / deadzone=21,11 / fast_pskip=1 / chroma_qp_offset=-2 / threads=5 / lookahead_threads=1 / sliced_threads=0 / nr=0 / decimate=1 / interlaced=0 / bluray_compat=0 / constrained_intra=0 / bframes=3 / b_pyramid=2 / b_adapt=1 / b_bias=0 / direct=1 / weightb=1 / open_gop=0 / weightp=1 / keyint=250 / keyint_min=25 / scenecut=40 / intra_refresh=0 / rc_lookahead=30 / rc=abr / mbtree=1 / bitrate=1450 / ratetol=1.0 / qcomp=0.60 / qpmin=0 / qpmax=69 / qpstep=4 / ip_ratio=1.40 / aq=1:1.00
    Language : English
    Default : Yes
    Forced : No
    Color range : Limited
    Color primaries : BT.709
    Transfer characteristics : BT.709
    Matrix coefficients : BT.709
    Audio
    ID : 2
    Format : AC-3
    Format/Info : Audio Coding 3
    Commercial name : Dolby Digital
    Codec ID : A_AC3
    Duration : 1 h 55 min
    Bit rate mode : Constant
    Bit rate : 384 kb/s
    Channel(s) : 6 channels
    Channel layout : L R C LFE Ls Rs
    Sampling rate : 48.0 kHz
    Frame rate : 31.250 FPS (1536 SPF)
    Bit depth : 16 bits
    Compression mode : Lossy
    Stream size : 318 MiB (21%)
    Title : iTunes | GEROY (2019) WEB-DL 1080p
    Language : Russian
    Service kind : Complete Main
    Default : Yes
    Forced : No
    Menu
    00:00:00.000 : en:Глава 1
    00:08:07.120 : en:Глава 2
    00:16:04.799 : en:Глава 3
    00:23:50.719 : en:Глава 4
    00:31:17.319 : en:Глава 5
    00:38:27.799 : en:Глава 6
    00:46:04.679 : en:Глава 7
    00:54:12.238 : en:Глава 8
    01:01:21.437 : en:Глава 9
    01:09:38.196 : en:Глава 10
    01:17:53.196 : en:Глава 11
    01:24:54.756 : en:Глава 12
    01:32:16.356 : en:Глава 13
    01:39:37.435 : en:Глава 14
    01:46:51.674 : en:Глава 15

    _________________
    Показать сообщения:    
    Главная  Кинофильмы  Российские кинофильмы  HD-AVC

    Текущее время: 14-Дек 07:28

    Часовой пояс: UTC + 5



    Вы не можете начинать темы
    Вы не можете отвечать на сообщения
    Вы не можете редактировать свои сообщения
    Вы не можете удалять свои сообщения
    Вы не можете голосовать в опросах
    Вы не можете прикреплять файлы к сообщениям
    Вы не можете скачивать файлы