Форсаж: Хоббс и Шоу / Fast & Furious Presents: Hobbs & Shaw (Дэвид Литч / David Leitch) [2019, Боевик, приключения, BDRip 1080p] iTunes :: UZTOR.PW Лучший трекер в зоне TAS-IX!
Регистрация ·
Имя: Пароль:  
· Забыли пароль?
Уважаемые гости сайта! Добро Пожаловать на наш торрент трекер,где Вы можете бесплатно скачать любой Софт,Фильмы,Музыку и многое другое! А так же постоянно ведется набор модераторов и релизеров. Зарегистрируйтесь сейчас, чтобы получить доступ ко всем функциям. После регистрации или входа на сайт вы сможете создавать темы, отвечать на сообщения и скачивать файлы.

Навигация по Торрент раздачам и Форум

До нового обновления Торрент-Трекер осталось

 Форсаж: Хоббс и Шоу / Fast & Furious Presents: Hobbs & Shaw (Дэвид Литч / David Leitch) [2019, Боевик, приключения, BDRip 1080p] iTunes

Главная  Кинофильмы  Зарубежные кинофильмы  HD
Статистика раздачи
Нет
 
     
 
 
Автор Сообщение
  • -InVoKeR- ®
  • Не в сети
  • 5057
  • VIP пользователь

  • Пол: Мужской

  • Стаж: 1 год

  • Сообщений: 420

  • Откуда: uztor.pw

  • Провайдер: UzOnline UzOnline

  • Тарифный план: Unlim 4 (Мир: 4 Мбит/с, Tas-ix: 100Мбит/с)

  • Steam: 76561198442747843

  • Telegram: i_Invoker

  • Карма: 1128


  • Наличие запрета:

  • Награды: 22 (Подробнее)
    Admin (Количество: 1) Авторитет (Количество: 1) Активный релизер 1 (Количество: 1) Активный релизер 2 (Количество: 1) Активный сидер 1 (Количество: 1)
  • Создавать темы 28-Окт-2019 22:23

    Форсаж: Хоббс и Шоу
    Fast & Furious Presents: Hobbs & Shaw
    --
    Год выпуска: 2019
    Страна: США
    Жанр: боевик, приключения
    Продолжительность: 02:15:55
    Перевод: Дублированный iTunes-Режиссер: Дэвид Литч / David Leitch-В ролях: Дуэйн Джонсон, Джейсон Стэйтем, Идрис Эльба, Ванесса Кирби, Хелен Миррен, Эйса Гонсалес, Эдди Марсан, Элиана Суа, Клифф Кёртис, Лори Пеленис Туисано-Описание: Люк Хоббс - американский элитный спецагент, он любит удобную спортивную одежду, большие пикапы и здоровое питание. Декард Шоу - британский пижон, бывший сотрудник разведки, предпочитает дорогие костюмы, спортивные авто и длинноногих красоток. Эти двое ненавидят друг друга. Но если кто-то угрожает их семьям, они готовы пойти на все. Даже на работу в команде.-Качество: BDRip 1080p
    Видео: MPEG-4 AVC, 1920x804, 14.3 Mbit/s, 23.976 fps
    Аудио #01: 48 kHz, AC3, 5.1, 384 Kbps | iTunes | RUS |
    Аудио #02: 48 kHz, AC3, 5.1, 448 Kbps | Оригинал | ENG |
    Субтитры: Русские (Forced), английские--

    MI

    General
    Unique ID : 264067893563067007040429973443017130719 (0xC6A9A058E53D7B0CEEBA4D6F56E342DF)
    Complete name : D:Video111Fast.and.Furious.Presents.Hobbs.and.Shaw.2019.BDRip.1080p.seleZen.mkv
    Format : Matroska
    Format version : Version 4
    File size : 14.4 GiB
    Duration : 2 h 16 min
    Overall bit rate : 15.1 Mb/s
    Movie name : Fast and Furious Presents Hobbs and Shaw 2019 from селезень
    Encoded date : UTC 2019-10-25 06:36:13
    Writing application : mkvmerge v22.0.0 ('At The End Of The World') 64-bit
    Writing library : libebml v1.3.5 + libmatroska v1.4.8
    Video
    ID : 1
    Format : AVC
    Format/Info : Advanced Video Codec
    Format profile : High@L4.1
    Format settings : CABAC / 5 Ref Frames
    Format settings, CABAC : Yes
    Format settings, Reference : 5 frames
    Codec ID : V_MPEG4/ISO/AVC
    Duration : 2 h 16 min
    Bit rate : 14.3 Mb/s
    Width : 1 920 pixels
    Height : 804 pixels
    Display aspect ratio : 2.40:1
    Frame rate mode : Constant
    Frame rate : 23.976 (24000/1001) FPS
    Color space : YUV
    Chroma subsampling : 4:2:0
    Bit depth : 8 bits
    Scan type : Progressive
    Bits/(Pixel*Frame) : 0.385
    Stream size : 13.6 GiB (94%)
    Title : MTeam
    Writing library : x264 core 157 r2938 2b00a84 TnP@MTeam Mod
    Encoding settings : cabac=1 / ref=5 / deblock=1:-3:-3 / analyse=0x3:0x133 / me=umh / subme=10 / psy=1 / psy_rd=1.05:0.00 / mixed_ref=1 / me_range=32 / chroma_me=1 / trellis=2 / 8x8dct=1 / cqm=0 / deadzone=21,11 / fast_pskip=0 / chroma_qp_offset=-2 / threads=12 / lookahead_threads=2 / sliced_threads=0 / nr=0 / decimate=0 / interlaced=0 / bluray_compat=0 / constrained_intra=0 / bframes=8 / b_pyramid=2 / b_adapt=2 / b_bias=0 / direct=3 / weightb=1 / open_gop=0 / weightp=2 / keyint=250 / keyint_min=24 / scenecut=40 / intra_refresh=0 / rc_lookahead=250 / rc=crf / mbtree=0 / crf=16.1 / qcomp=0.60 / qpmin=0 / qpmax=69 / qpstep=4 / vbv_maxrate=62500 / vbv_bufsize=78125 / crf_max=0.0 / nal_hrd=none / filler=0 / ip_ratio=1.30 / pb_ratio=1.20 / aq=3:0.80
    Language : English
    Default : Yes
    Forced : No
    Color range : Limited
    Color primaries : BT.709
    Matrix coefficients : BT.709
    Audio #1
    ID : 2
    Format : AC-3
    Format/Info : Audio Coding 3
    Commercial name : Dolby Digital
    Codec ID : A_AC3
    Duration : 2 h 16 min
    Bit rate mode : Constant
    Bit rate : 384 kb/s
    Channel(s) : 6 channels
    Channel layout : L R C LFE Ls Rs
    Sampling rate : 48.0 kHz
    Frame rate : 31.250 FPS (1536 SPF)
    Bit depth : 16 bits
    Compression mode : Lossy
    Stream size : 375 MiB (3%)
    Title : iTunes
    Language : Russian
    Service kind : Complete Main
    Default : Yes
    Forced : Yes
    Audio #2
    ID : 3
    Format : AC-3
    Format/Info : Audio Coding 3
    Commercial name : Dolby Digital
    Codec ID : A_AC3
    Duration : 2 h 16 min
    Bit rate mode : Constant
    Bit rate : 448 kb/s
    Channel(s) : 6 channels
    Channel layout : L R C LFE Ls Rs
    Sampling rate : 48.0 kHz
    Frame rate : 31.250 FPS (1536 SPF)
    Bit depth : 16 bits
    Compression mode : Lossy
    Stream size : 438 MiB (3%)
    Title : Original
    Language : English
    Service kind : Complete Main
    Default : No
    Forced : No
    Text #1
    ID : 4
    Format : UTF-8
    Codec ID : S_TEXT/UTF8
    Codec ID/Info : UTF-8 Plain Text
    Duration : 2 h 4 min
    Bit rate : 1 b/s
    Count of elements : 48
    Stream size : 1.42 KiB (0%)
    Title : Forced
    Language : Russian
    Default : Yes
    Forced : Yes
    Text #2
    ID : 5
    Format : UTF-8
    Codec ID : S_TEXT/UTF8
    Codec ID/Info : UTF-8 Plain Text
    Duration : 2 h 1 min
    Bit rate : 61 b/s
    Count of elements : 1947
    Stream size : 54.9 KiB (0%)
    Title : Full
    Language : English
    Default : No
    Forced : No
    Menu
    00:00:00.000 : en:Chapter 01
    00:04:58.131 : en:Chapter 02
    00:13:43.489 : en:Chapter 03
    00:19:21.452 : en:Chapter 04
    00:26:45.979 : en:Chapter 05
    00:35:41.514 : en:Chapter 06
    00:40:13.244 : en:Chapter 07
    00:46:22.029 : en:Chapter 08
    00:51:34.216 : en:Chapter 09
    00:57:51.802 : en:Chapter 10
    01:01:53.251 : en:Chapter 11
    01:08:45.163 : en:Chapter 12
    01:14:22.833 : en:Chapter 13
    01:19:48.075 : en:Chapter 14
    01:24:59.261 : en:Chapter 15
    01:32:58.198 : en:Chapter 16
    01:38:48.923 : en:Chapter 17
    01:46:32.970 : en:Chapter 18
    01:53:29.594 : en:Chapter 19
    02:01:14.809 : en:Chapter 20

    _________________
    Показать сообщения:    
    Главная  Кинофильмы  Зарубежные кинофильмы  HD

    Текущее время: 08-Дек 00:30

    Часовой пояс: UTC + 5



    Вы не можете начинать темы
    Вы не можете отвечать на сообщения
    Вы не можете редактировать свои сообщения
    Вы не можете удалять свои сообщения
    Вы не можете голосовать в опросах
    Вы не можете прикреплять файлы к сообщениям
    Вы не можете скачивать файлы