Они / Haunt (Скотт Бек, Брайан Вудс / Scott Beck, Bryan Woods) [2019, Ужасы, триллер, WEBRip 1080p] :: UZTOR.PW Лучший трекер в зоне TAS-IX!
Регистрация ·
Имя: Пароль:  
· Забыли пароль?
Уважаемые гости сайта! Добро Пожаловать на наш торрент трекер,где Вы можете бесплатно скачать любой Софт,Фильмы,Музыку и многое другое! А так же постоянно ведется набор модераторов и релизеров. Зарегистрируйтесь сейчас, чтобы получить доступ ко всем функциям. После регистрации или входа на сайт вы сможете создавать темы, отвечать на сообщения и скачивать файлы.

Навигация по Торрент раздачам и Форум

До нового обновления Торрент-Трекер осталось

 Они / Haunt (Скотт Бек, Брайан Вудс / Scott Beck, Bryan Woods) [2019, Ужасы, триллер, WEBRip 1080p]

Главная  Кинофильмы  Зарубежные кинофильмы  HD
Статистика раздачи
Нет
 
     
 
 
Автор Сообщение
  • NuRKHoNoFF ®
  • Не в сети
  • 5064
  • Пол: Мужской

  • Стаж: 11 месяцев 20 дней

  • Сообщений: 918

  • Откуда: Каттакурган

  • Провайдер: TPS TPS

  • Карма: 582


  • Наличие запрета:

  • Награды: 17 (Подробнее)
    Активный релизер 1 (Количество: 1) Активный релизер 2 (Количество: 1) Активный релизер 3 (Количество: 1) Активный релизер 4 (Количество: 1) Активный релизер 5 (Количество: 1)
  • Создавать темы 28-Окт-2019 00:25

    Они / Haunt -Год выпуска: 2019
    Страна: США
    Жанр: Ужасы, триллер
    Продолжительность: 01:32:00
    Перевод: Любительский (одноголосый) [Xixidok]-Режиссер: Скотт Бек, Брайан Вудс / Scott Beck, Bryan Woods-В ролях: Кэти Стивенс, Уилл Бриттейн, Лорин Алиса МакКлейн, Эндрю Колдуэлл, Шази Раджа, Шулер Хелфорд, Phillip Johnson Richardson, Chaney Morrow, Джастин Марксен, Терри Партыка-Описание: На Хэллоуин в поисках острых ощущений группа студентов отправляется за город на аттракцион «Комнаты страха», который обещает воплотить кошмары из самых жутких фильмов ужасов. Вскоре друзья понимают, что попали вовсе не в место для игр, под масками клоунов скрываются не люди, а существа из другого мира, а сами они теперь — герои настоящего хоррора и должны очень сильно постараться, чтобы выбраться из адского аттракциона живыми.- -Качество: WEBRip 1080p
    Формат: MKV
    Видео: 1920x784, 23.976 fps (H.264), High@L4.1 ~ 2100 kbps, 0.0587 bit/pixel
    Аудио: 44.100 kHz, MPEG Layer 3, 2 ch, ~192.00 kbps avg-

    MediaInfo

    General
    Unique ID : 245830227751856823935748999388557814995 (0xB8F12DFFEB973B248996B4F27E952CD3)
    Complete name : Haunt.2019.1080p.WEBRip.x264.Xixidok.mkv
    Format : Matroska
    Format version : Version 4 / Version 2
    File size : 1.48 GiB
    Duration : 1 h 32 min
    Overall bit rate : 2 288 kb/s
    Encoded date : UTC 2019-10-25 19:37:54
    Writing application : mkvmerge v15.0.0 ('Duel with the Devil') 64-bit
    Writing library : libebml v1.3.5 + libmatroska v1.4.5
    Video
    ID : 1
    Format : AVC
    Format/Info : Advanced Video Codec
    Format profile : High@L4.1
    Format settings : CABAC / 4 Ref Frames
    Format settings, CABAC : Yes
    Format settings, RefFrames : 4 frames
    Codec ID : V_MPEG4/ISO/AVC
    Duration : 1 h 32 min
    Bit rate : 2 100 kb/s
    Width : 1 920 pixels
    Height : 784 pixels
    Display aspect ratio : 2.40:1
    Frame rate mode : Constant
    Frame rate : 23.976 (24000/1001) FPS
    Color space : YUV
    Chroma subsampling : 4:2:0
    Bit depth : 8 bits
    Scan type : Progressive
    Bits/(Pixel*Frame) : 0.058
    Stream size : 1.36 GiB (92%)
    Writing library : x264 core 152
    Encoding settings : cabac=1 / ref=4 / deblock=1:-1:-1 / analyse=0x3:0x133 / me=umh / subme=9 / psy=1 / psy_rd=1.00:0.15 / mixed_ref=1 / me_range=24 / chroma_me=1 / trellis=2 / 8x8dct=1 / cqm=0 / deadzone=21,11 / fast_pskip=0 / chroma_qp_offset=-3 / threads=12 / lookahead_threads=1 / sliced_threads=0 / nr=0 / decimate=1 / interlaced=0 / bluray_compat=0 / constrained_intra=0 / bframes=3 / b_pyramid=2 / b_adapt=2 / b_bias=0 / direct=3 / weightb=1 / open_gop=0 / weightp=2 / keyint=250 / keyint_min=23 / scenecut=40 / intra_refresh=0 / rc_lookahead=60 / rc=2pass / mbtree=1 / bitrate=2100 / ratetol=1.0 / qcomp=0.60 / qpmin=0 / qpmax=69 / qpstep=4 / cplxblur=20.0 / qblur=0.5 / vbv_maxrate=31250 / vbv_bufsize=31250 / nal_hrd=none / filler=0 / ip_ratio=1.40 / aq=1:1.00
    Default : Yes
    Forced : No
    Audio
    ID : 2
    Format : MPEG Audio
    Format version : Version 1
    Format profile : Layer 3
    Codec ID : A_MPEG/L3
    Codec ID/Hint : MP3
    Duration : 1 h 32 min
    Bit rate mode : Constant
    Bit rate : 192 kb/s
    Channel(s) : 2 channels
    Sampling rate : 44.1 kHz
    Frame rate : 38.281 FPS (1152 SPF)
    Compression mode : Lossy
    Stream size : 127 MiB (8%)
    Default : Yes
    Forced : No


    _________________
    Показать сообщения:    
    Главная  Кинофильмы  Зарубежные кинофильмы  HD

    Текущее время: 07-Дек 17:04

    Часовой пояс: UTC + 5



    Вы не можете начинать темы
    Вы не можете отвечать на сообщения
    Вы не можете редактировать свои сообщения
    Вы не можете удалять свои сообщения
    Вы не можете голосовать в опросах
    Вы не можете прикреплять файлы к сообщениям
    Вы не можете скачивать файлы