Оно / It (Андрес Мускетти / Andres Muschietti) [2017, Ужасы, BDRip-HEVC 1080p 10bit] Лицензия :: UZTOR.PW Лучший трекер в зоне TAS-IX!
Регистрация ·
Имя: Пароль:  
· Забыли пароль?
Уважаемые гости сайта! Добро Пожаловать на наш торрент трекер,где Вы можете бесплатно скачать любой Софт,Фильмы,Музыку и многое другое! А так же постоянно ведется набор модераторов и релизеров. Зарегистрируйтесь сейчас, чтобы получить доступ ко всем функциям. После регистрации или входа на сайт вы сможете создавать темы, отвечать на сообщения и скачивать файлы.

Навигация по Торрент раздачам и Форум

До нового обновления Торрент-Трекер осталось

 Оно / It (Андрес Мускетти / Andres Muschietti) [2017, Ужасы, BDRip-HEVC 1080p 10bit] Лицензия

Главная  Кинофильмы  Кинофильмы (HEVC)  Фильмы 2011-2018 годов
Статистика раздачи
Нет
 
     
 
 
Автор Сообщение
  • -InVoKeR- ®
  • Не в сети
  • 5057
  • VIP пользователь

  • Пол: Мужской

  • Стаж: 1 год

  • Сообщений: 423

  • Откуда: uztor.pw

  • Провайдер: UzOnline UzOnline

  • Тарифный план: Unlim 4 (Мир: 4 Мбит/с, Tas-ix: 100Мбит/с)

  • Steam: 76561198442747843

  • Telegram: i_Invoker

  • Карма: 1128


  • Наличие запрета:

  • Награды: 22 (Подробнее)
    Admin (Количество: 1) Авторитет (Количество: 1) Активный релизер 1 (Количество: 1) Активный релизер 2 (Количество: 1) Активный сидер 1 (Количество: 1)
  • Создавать темы 26-Окт-2019 00:47

    Оно / It
    «А чего боишься ты?»
    --
    Год выпуска: 2017
    Страна: США, Канада / KatzSmith Productions, Lin Pictures, New Line Cinema, RatPac-Dune Entertainment, Vertigo Entertainment
    Жанр: Ужасы
    Продолжительность: 02:14:42
    Перевод: Профессиональный (полное дублирование) Лицензия
    Субтитры: русские, английские, ...-Режиссер: Андрес Мускетти / Andres Muschietti-В ролях: Джейден Либерер (Bill Denbrough), Джереми Рэй Тейлор (Ben Hanscom), Софиа Лиллис (Beverly Marsh), Финн Вулфард (Richie Tozier), Чоузен Джейкобс (Mike Hanlon), Джек Дилан Грейзер (Eddie Kaspbrak), Уайатт Олефф (Stanley Uris), Билл Скарсгард (Pennywise), Николас Хэмилтон (Henry Bowers), Джейк Сим (Belch Huggins), Логан Томпсон (Victor Criss), Оуэн Тиг (Patrick Hockstetter)-Описание: Когда в городке Дерри, штат Мэн, начинают пропадать дети, несколько ребят сталкиваются со своими величайшими страхами и вынуждены помериться силами со злобным клоуном Пеннивайзом, чьи проявления жестокости и список жертв уходят в глубь веков.-Качество: BDRip-HEVC 1080p
    Формат: MKV
    Видео: 1920x800, 23.976 fps, 1499 kbps
    Аудио 1: AC3, 48 kHz, 6 ch, 448 kbps | DUB
    Аудио 2: HE-AAC, 48 kHz, 8 ch, 288 kbps | ENG--

    Тех. инфо

    General
    Unique ID : 268877810324247076820909519174047725932 (0xCA47FB8D8A277C57A03A449D7055796C)
    Complete name : IT.2017.BDRip1080p HEVC 10bit.mkv
    Format : Matroska
    Format version : Version 4
    File size : 2.14 GiB
    Duration : 2 h 14 min
    Overall bit rate : 2 280 kb/s
    Movie name : IT.2017.BDRip1080p HEVC 10bit.Alltor.mkv
    Encoded date : UTC 2019-10-25 02:04:49
    Writing application : mkvmerge v35.0.0 ('All The Love In The World') 64-bit
    Writing library : libebml v1.3.9 + libmatroska v1.5.2
    Video
    ID : 1
    Format : HEVC
    Format/Info : High Efficiency Video Coding
    Format profile : Main 10@L4@Main
    Codec ID : V_MPEGH/ISO/HEVC
    Duration : 2 h 14 min
    Bit rate : 1 499 kb/s
    Width : 1 920 pixels
    Height : 800 pixels
    Display aspect ratio : 2.40:1
    Frame rate mode : Constant
    Frame rate : 23.976 (24000/1001) FPS
    Color space : YUV
    Chroma subsampling : 4:2:0
    Bit depth : 10 bits
    Bits/(Pixel*Frame) : 0.041
    Stream size : 1.41 GiB (66%)
    Writing library : x265 2.8+19-bcdc610cf5f0:[Windows][MSVC 1914][64 bit] 10bit
    Encoding settings : cpuid=1111039 / frame-threads=3 / numa-pools=8 / wpp / no-pmode / no-pme / no-psnr / ssim / log-level=2 / input-csp=1 / input-res=1920x800 / interlace=0 / total-frames=193784 / level-idc=0 / high-tier=1 / uhd-bd=0 / ref=4 / no-allow-non-conformance / no-repeat-headers / annexb / no-aud / no-hrd / info / hash=0 / no-temporal-layers / open-gop / min-keyint=23 / keyint=250 / gop-lookahead=0 / bframes=4 / b-adapt=2 / b-pyramid / bframe-bias=0 / rc-lookahead=80 / lookahead-slices=4 / scenecut=40 / radl=0 / no-intra-refresh / ctu=64 / min-cu-size=8 / rect / no-amp / max-tu-size=32 / tu-inter-depth=1 / tu-intra-depth=1 / limit-tu=0 / rdoq-level=2 / dynamic-rd=0.00 / ssim-rd / signhide / no-tskip / nr-intra=0 / nr-inter=0 / no-constrained-intra / strong-intra-smoothing / max-merge=3 / limit-refs=3 / limit-modes / me=3 / subme=3 / merange=57 / temporal-mvp / weightp / no-weightb / no-analyze-src-pics / deblock=0:0 / sao / no-sao-non-deblock / rd=4 / no-early-skip / rskip / no-fast-intra / no-tskip-fast / no-cu-lossless / no-b-intra / no-splitrd-skip / rdpenalty=0 / psy-rd=0.00 / psy-rdoq=1.00 / no-rd-refine / no-lossless / cbqpoffs=0 / crqpoffs=0 / rc=abr / bitrate=1500 / qcomp=0.60 / qpstep=4 / stats-write=0 / stats-read=2 / cplxblur=20.0 / qblur=0.5 / vbv-maxrate=4500 / vbv-bufsize=9000 / vbv-init=0.9 / ipratio=1.40 / pbratio=1.30 / aq-mode=2 / aq-strength=0.80 / cutree / zone-count=0 / no-strict-cbr / qg-size=32 / no-rc-grain / qpmax=69 / qpmin=0 / no-const-vbv / sar=0 / overscan=0 / videoformat=5 / range=0 / colorprim=2 / transfer=2 / colormatrix=2 / chromaloc=0 / display-window=0 / max-cll=0,0 / min-luma=0 / max-luma=1023 / log2-max-poc-lsb=8 / vui-timing-info / vui-hrd-info / slices=1 / no-opt-qp-pps / no-opt-ref-list-length-pps / multi-pass-opt-rps / scenecut-bias=0.05 / no-opt-cu-delta-qp / no-aq-motion / no-hdr / no-hdr-opt / no-dhdr10-opt / no-idr-recovery-sei / analysis-reuse-level=10 / scale-factor=0 / refine-intra=0 / refine-inter=0 / refine-mv=0 / limit-sao / ctu-info=0 / no-lowpass-dct / refine-mv-type=0 / copy-pic=1 / max-ausize-factor=1.0 / no-dynamic-refine / no-single-sei
    Default : Yes
    Forced : No
    Audio #1
    ID : 2
    Format : AC-3
    Format/Info : Audio Coding 3
    Commercial name : Dolby Digital
    Codec ID : A_AC3
    Duration : 2 h 14 min
    Bit rate mode : Constant
    Bit rate : 448 kb/s
    Channel(s) : 6 channels
    Channel layout : L R C LFE Ls Rs
    Sampling rate : 48.0 kHz
    Frame rate : 31.250 FPS (1536 SPF)
    Bit depth : 16 bits
    Compression mode : Lossy
    Stream size : 432 MiB (20%)
    Title : Dub_Blu-ray CEE
    Language : Russian
    Service kind : Complete Main
    Default : Yes
    Forced : No
    Audio #2
    ID : 3
    Format : AAC LC SBR
    Format/Info : Advanced Audio Codec Low Complexity with Spectral Band Replication
    Commercial name : HE-AAC
    Format settings : Explicit
    Codec ID : A_AAC-2
    Duration : 2 h 14 min
    Bit rate : 288 kb/s
    Channel(s) : 8 channels
    Channel layout : C L R Ls Rs Lb Rb LFE
    Sampling rate : 48.0 kHz
    Frame rate : 23.438 FPS (2048 SPF)
    Compression mode : Lossy
    Delay relative to video : 31 ms
    Stream size : 282 MiB (13%)
    Title : Original
    Language : English
    Default : No
    Forced : No
    Text #1
    ID : 4
    Format : UTF-8
    Codec ID : S_TEXT/UTF8
    Codec ID/Info : UTF-8 Plain Text
    Duration : 2 h 8 min
    Bit rate : 2 b/s
    Count of elements : 48
    Stream size : 2.16 KiB (0%)
    Title : Forced
    Language : Russian
    Default : No
    Forced : No
    Text #2
    ID : 5
    Format : UTF-8
    Codec ID : S_TEXT/UTF8
    Codec ID/Info : UTF-8 Plain Text
    Duration : 2 h 8 min
    Bit rate : 64 b/s
    Count of elements : 1209
    Stream size : 60.7 KiB (0%)
    Title : iTunes
    Language : Russian
    Default : No
    Forced : No
    Text #3
    ID : 6
    Format : UTF-8
    Codec ID : S_TEXT/UTF8
    Codec ID/Info : UTF-8 Plain Text
    Duration : 2 h 7 min
    Bit rate : 37 b/s
    Count of elements : 1380
    Stream size : 35.1 KiB (0%)
    Title : Full
    Language : English
    Default : No
    Forced : No
    Text #4
    ID : 7
    Format : UTF-8
    Codec ID : S_TEXT/UTF8
    Codec ID/Info : UTF-8 Plain Text
    Duration : 2 h 14 min
    Bit rate : 47 b/s
    Count of elements : 1835
    Stream size : 47.2 KiB (0%)
    Title : SDH
    Language : English
    Default : No
    Forced : No
    Text #5
    ID : 8
    Format : UTF-8
    Codec ID : S_TEXT/UTF8
    Codec ID/Info : UTF-8 Plain Text
    Duration : 2 h 14 min
    Bit rate : 86 b/s
    Count of elements : 1813
    Stream size : 85.6 KiB (0%)
    Title : SDH-Colored
    Language : English
    Default : No
    Forced : No
    Text #6
    ID : 9
    Format : PGS
    Muxing mode : zlib
    Codec ID : S_HDMV/PGS
    Codec ID/Info : Picture based subtitle format used on BDs/HD-DVDs
    Duration : 2 h 14 min
    Bit rate : 30.0 kb/s
    Count of elements : 3676
    Stream size : 28.9 MiB (1%)
    Language : English
    Default : No
    Forced : No
    Text #7
    ID : 10
    Format : VobSub
    Muxing mode : zlib
    Codec ID : S_VOBSUB
    Codec ID/Info : Picture based subtitle format used on DVDs
    Duration : 2 h 13 min
    Bit rate : 5 252 b/s
    Count of elements : 1257
    Stream size : 5.01 MiB (0%)
    Language : French
    Default : No
    Forced : No
    Text #8
    ID : 11
    Format : VobSub
    Muxing mode : zlib
    Codec ID : S_VOBSUB
    Codec ID/Info : Picture based subtitle format used on DVDs
    Duration : 2 h 13 min
    Bit rate : 5 518 b/s
    Count of elements : 1414
    Stream size : 5.26 MiB (0%)
    Language : Chinese
    Default : No
    Forced : No
    Text #9
    ID : 12
    Format : VobSub
    Muxing mode : zlib
    Codec ID : S_VOBSUB
    Codec ID/Info : Picture based subtitle format used on DVDs
    Duration : 2 h 13 min
    Bit rate : 5 392 b/s
    Count of elements : 1406
    Stream size : 5.14 MiB (0%)
    Language : Chinese
    Default : No
    Forced : No
    Text #10
    ID : 13
    Format : VobSub
    Muxing mode : zlib
    Codec ID : S_VOBSUB
    Codec ID/Info : Picture based subtitle format used on DVDs
    Duration : 2 h 13 min
    Bit rate : 4 158 b/s
    Count of elements : 1377
    Stream size : 3.96 MiB (0%)
    Language : Korean
    Default : No
    Forced : No
    Text #11
    ID : 14
    Format : VobSub
    Muxing mode : zlib
    Codec ID : S_VOBSUB
    Codec ID/Info : Picture based subtitle format used on DVDs
    Duration : 2 h 13 min
    Bit rate : 6 216 b/s
    Count of elements : 1406
    Stream size : 5.93 MiB (0%)
    Language : Spanish
    Default : No
    Forced : No
    Text #12
    ID : 15
    Format : VobSub
    Muxing mode : zlib
    Codec ID : S_VOBSUB
    Codec ID/Info : Picture based subtitle format used on DVDs
    Duration : 2 h 13 min
    Bit rate : 6 221 b/s
    Count of elements : 1400
    Stream size : 5.93 MiB (0%)
    Language : Portuguese
    Default : No
    Forced : No
    Text #13
    ID : 16
    Format : VobSub
    Muxing mode : zlib
    Codec ID : S_VOBSUB
    Codec ID/Info : Picture based subtitle format used on DVDs
    Duration : 2 h 13 min
    Bit rate : 3 328 b/s
    Count of elements : 1415
    Stream size : 3.17 MiB (0%)
    Language : Arabic
    Default : No
    Forced : No
    Text #14
    ID : 17
    Format : UTF-8
    Codec ID : S_TEXT/UTF8
    Codec ID/Info : UTF-8 Plain Text
    Duration : 2 h 8 min
    Bit rate : 34 b/s
    Count of elements : 1329
    Stream size : 32.8 KiB (0%)
    Language : Danish
    Default : No
    Forced : No
    Text #15
    ID : 18
    Format : UTF-8
    Codec ID : S_TEXT/UTF8
    Codec ID/Info : UTF-8 Plain Text
    Duration : 2 h 14 min
    Bit rate : 30 b/s
    Count of elements : 910
    Stream size : 29.8 KiB (0%)
    Language : Dutch
    Default : No
    Forced : No
    Text #16
    ID : 19
    Format : UTF-8
    Codec ID : S_TEXT/UTF8
    Codec ID/Info : UTF-8 Plain Text
    Duration : 2 h 9 min
    Bit rate : 61 b/s
    Count of elements : 1322
    Stream size : 57.7 KiB (0%)
    Language : Persian
    Default : No
    Forced : No
    Text #17
    ID : 20
    Format : UTF-8
    Codec ID : S_TEXT/UTF8
    Codec ID/Info : UTF-8 Plain Text
    Duration : 2 h 6 min
    Bit rate : 34 b/s
    Count of elements : 1389
    Stream size : 31.7 KiB (0%)
    Language : Finnish
    Default : No
    Forced : No
    Text #18
    ID : 21
    Format : UTF-8
    Codec ID : S_TEXT/UTF8
    Codec ID/Info : UTF-8 Plain Text
    Duration : 2 h 7 min
    Bit rate : 44 b/s
    Count of elements : 1402
    Stream size : 41.7 KiB (0%)
    Language : German
    Default : No
    Forced : No
    Text #19
    ID : 22
    Format : UTF-8
    Codec ID : S_TEXT/UTF8
    Codec ID/Info : UTF-8 Plain Text
    Duration : 2 h 14 min
    Bit rate : 53 b/s
    Count of elements : 1410
    Stream size : 52.3 KiB (0%)
    Language : Hebrew
    Default : No
    Forced : No
    Text #20
    ID : 23
    Format : UTF-8
    Codec ID : S_TEXT/UTF8
    Codec ID/Info : UTF-8 Plain Text
    Duration : 2 h 10 min
    Bit rate : 42 b/s
    Count of elements : 1409
    Stream size : 41.2 KiB (0%)
    Language : Indonesian
    Default : No
    Forced : No
    Text #21
    ID : 24
    Format : UTF-8
    Codec ID : S_TEXT/UTF8
    Codec ID/Info : UTF-8 Plain Text
    Duration : 2 h 7 min
    Bit rate : 33 b/s
    Count of elements : 1066
    Stream size : 31.3 KiB (0%)
    Language : Norwegian
    Default : No
    Forced : No
    Text #22
    ID : 25
    Format : UTF-8
    Codec ID : S_TEXT/UTF8
    Codec ID/Info : UTF-8 Plain Text
    Duration : 2 h 7 min
    Bit rate : 36 b/s
    Count of elements : 1386
    Stream size : 34.1 KiB (0%)
    Language : Swedish
    Default : No
    Forced : No
    Text #23
    ID : 26
    Format : UTF-8
    Codec ID : S_TEXT/UTF8
    Codec ID/Info : UTF-8 Plain Text
    Duration : 2 h 9 min
    Bit rate : 79 b/s
    Count of elements : 1311
    Stream size : 75.3 KiB (0%)
    Language : Thai
    Default : No
    Forced : No
    Text #24
    ID : 27
    Format : UTF-8
    Codec ID : S_TEXT/UTF8
    Codec ID/Info : UTF-8 Plain Text
    Duration : 2 h 7 min
    Bit rate : 38 b/s
    Count of elements : 1168
    Stream size : 36.4 KiB (0%)
    Language : Turkish
    Default : No
    Forced : No
    Text #25
    ID : 28
    Format : UTF-8
    Codec ID : S_TEXT/UTF8
    Codec ID/Info : UTF-8 Plain Text
    Duration : 2 h 8 min
    Bit rate : 50 b/s
    Count of elements : 1354
    Stream size : 47.1 KiB (0%)
    Default : No
    Forced : No
    Menu
    00:00:00.000 : en:Chapter 01
    00:09:23.479 : en:Chapter 02
    00:18:31.860 : en:Chapter 03
    00:28:26.162 : en:Chapter 04
    00:38:36.981 : en:Chapter 05
    00:48:19.438 : en:Chapter 06
    00:59:30.775 : en:Chapter 07
    01:08:52.795 : en:Chapter 08
    01:16:58.572 : en:Chapter 09
    01:26:52.957 : en:Chapter 10
    01:38:15.306 : en:Chapter 11
    01:48:40.972 : en:Chapter 12
    02:04:07.898 : en:Chapter 13
    02:09:05.654 : en:Chapter 14

    _________________
    Показать сообщения:    
    Главная  Кинофильмы  Кинофильмы (HEVC)  Фильмы 2011-2018 годов

    Текущее время: 12-Дек 00:31

    Часовой пояс: UTC + 5



    Вы не можете начинать темы
    Вы не можете отвечать на сообщения
    Вы не можете редактировать свои сообщения
    Вы не можете удалять свои сообщения
    Вы не можете голосовать в опросах
    Вы не можете прикреплять файлы к сообщениям
    Вы не можете скачивать файлы