Мастера меча онлайн: Алисизация - Война в Подмирье / Sword Art Online: Alicization - War of Underworld [01 из 12] (2019) [Приключения, фэнтези, мультсериал] WEB-DL 1080p :: UZTOR.PW Лучший трекер в зоне TAS-IX!
Регистрация ·
Имя: Пароль:  
· Забыли пароль?
Уважаемые гости сайта! Добро Пожаловать на наш торрент трекер,где Вы можете бесплатно скачать любой Софт,Фильмы,Музыку и многое другое! А так же постоянно ведется набор модераторов и релизеров. Зарегистрируйтесь сейчас, чтобы получить доступ ко всем функциям. После регистрации или входа на сайт вы сможете создавать темы, отвечать на сообщения и скачивать файлы.

Навигация по Торрент раздачам и Форум

До нового обновления Торрент-Трекер осталось

 Мастера меча онлайн: Алисизация - Война в Подмирье / Sword Art Online: Alicization - War of Underworld [01 из 12] (2019) [Приключения, фэнтези, мультсериал] WEB-DL 1080p

Главная  Технический форум  Архив
Статистика раздачи
Нет
 
     
 
 
Автор Сообщение
  • .STRICER ®
  • В сети
  • 5055
  • Пол: Мужской

  • Стаж: 1 год

  • Сообщений: 144

  • Откуда: Узбекистан

  • Провайдер: UzOnline UzOnline

  • Тарифный план: UNLIM 6 / 6 Мбит/сек

  • Карма: 777


  • Наличие запрета:

  • Награды: 4 (Подробнее)
    Активный Модератор (Количество: 1) Меломан (Количество: 1) Модератор (Количество: 1) Примерный модератор (Количество: 1)
  • Создавать темы 16-Окт-2019 19:46

    Мастера меча онлайн: Алисизация - Война в Подмирье
    Sword Art Online: Alicization - War of Underworld

    Год выпуска: 2019
    Жанр: Приключения, фэнтези, мультсериал
    Режиссер: Манабу Оно
    В ролях: Ёсицугу Мацуока, Нобунага Симадзаки, Ай Каяно, Харука Томацу, Каори Маэда
    War of Underworld - Кирито просыпается в огромном фантастическом виртуальном мире. Потеряв память, он начинает искать подсказки и встречает молодого парня Юджио у подножия черного дерева. И хотя Юджио — персонаж из виртуального мира (NPC), у него есть способность чувствовать и выражать человеческие чувства. Пытаясь найти способ выйти из системы, Кирито вдруг вспоминает, как бежал с Юджио на эту же самую гору, где они находятся. Но как это вообще возможно? Это воспоминание не должно было и существовать. Кроме того, в этом воспоминании была молодая девушка с длинными светлыми волосами, имя которой — Алиса. Что бы ни случилось, это имя нельзя забыть.
    Страна: Япония
    Студия: A-1 Pictures Inc.
    Продолжительность: 1 х ~ 00:25:00
    Перевод: Профессиональный дублированный | StudioBand по заказу [Wakanim]
    --Качество: WEB-DL 1080p
    Видео: MPEG-4 AVC, ~ 11.2 Мбит/с, 1920x1080, 8 бит
    Аудио: Русский (AAC, 2 ch, 192 Кбит/с), японский (AAC, 2 ch, 256 Кбит/с)
    Субтитры: Русские (Софтсаб)

    Список эпизодов (01/12)

    01. На северной земле
    -

    Дата выхода серий

    -

    MediaInfo

    General
    Unique ID                   : 31793029639490775334239500827146374538 (0x17EB1D62420E8B4E97ACE0759A50CD8A)
    Complete name               : D:\Profils\VS-DV\Anime\[Wakanim] Sword Art Online Alicization - War of Underworld [1080]\Sword Art Online Alicization - War of Underworld - 01.mkv
    Format                      : Matroska
    Format version              : Version 4
    File size                   : 1.93 GiB
    Duration                    : 23 min 37 s
    Overall bit rate            : 11.7 Mb/s
    Encoded date                : UTC 2019-10-12 19:23:18
    Writing application         : mkvmerge v38.0.0 ('The Silent Type') 64-bit
    Writing library             : libebml v1.3.9 + libmatroska v1.5.2
    Video
    ID                          : 1
    Format                      : AVC
    Format/Info                 : Advanced Video Codec
    Format profile              : High@L4.1
    Format settings             : CABAC / 4 Ref Frames
    Format settings, CABAC      : Yes
    Format settings, Reference  : 4 frames
    Codec ID                    : V_MPEG4/ISO/AVC
    Duration                    : 23 min 37 s
    Bit rate                    : 11.2 Mb/s
    Width                       : 1 920 pixels
    Height                      : 1 080 pixels
    Display aspect ratio        : 16:9
    Frame rate mode             : Constant
    Frame rate                  : 23.976 (24000/1001) FPS
    Color space                 : YUV
    Chroma subsampling          : 4:2:0
    Bit depth                   : 8 bits
    Scan type                   : Progressive
    Bits/(Pixel*Frame)          : 0.226
    Stream size                 : 1.86 GiB (96%)
    Writing library             : x264 core 155 r2901 7d0ff22
    Encoding settings           : cabac=1 / ref=4 / deblock=1:1:1 / analyse=0x3:0x133 / me=umh / subme=10 / psy=1 / psy_rd=0.40:0.00 / mixed_ref=1 / me_range=24 / chroma_me=1 / trellis=2 / 8x8dct=1 / cqm=0 / deadzone=21,11 / fast_pskip=1 / chroma_qp_offset=-2 / threads=24 / lookahead_threads=6 / sliced_threads=0 / nr=0 / decimate=1 / interlaced=0 / bluray_compat=0 / constrained_intra=0 / bframes=10 / b_pyramid=2 / b_adapt=2 / b_bias=0 / direct=3 / weightb=1 / open_gop=0 / weightp=2 / keyint=250 / keyint_min=23 / scenecut=40 / intra_refresh=0 / rc_lookahead=60 / rc=crf / mbtree=1 / crf=12.0 / qcomp=0.60 / qpmin=0 / qpmax=69 / qpstep=4 / ip_ratio=1.40 / aq=1:0.60
    Default                     : Yes
    Forced                      : No
    Audio #1
    ID                          : 2
    Format                      : AAC LC
    Format/Info                 : Advanced Audio Codec Low Complexity
    Codec ID                    : A_AAC-2
    Duration                    : 23 min 37 s
    Bit rate                    : 192 kb/s
    Channel(s)                  : 2 channels
    Channel layout              : L R
    Sampling rate               : 48.0 kHz
    Frame rate                  : 46.875 FPS (1024 SPF)
    Compression mode            : Lossy
    Stream size                 : 32.6 MiB (2%)
    Language                    : Russian
    Default                     : Yes
    Forced                      : Yes
    Audio #2
    ID                          : 3
    Format                      : AAC LC
    Format/Info                 : Advanced Audio Codec Low Complexity
    Codec ID                    : A_AAC-2
    Duration                    : 23 min 37 s
    Bit rate                    : 265 kb/s
    Channel(s)                  : 2 channels
    Channel layout              : L R
    Sampling rate               : 48.0 kHz
    Frame rate                  : 46.875 FPS (1024 SPF)
    Compression mode            : Lossy
    Stream size                 : 44.4 MiB (2%)
    Language                    : Japanese
    Default                     : No
    Forced                      : No

    _________________

    -
    Скачать Teredo
    • -InVoKeR-
    • Не в сети
    • 5057
    • VIP пользователь

    • Пол: Мужской

    • Стаж: 1 год

    • Сообщений: 420

    • Откуда: uztor.pw

    • Провайдер: UzOnline UzOnline

    • Тарифный план: Unlim 4 (Мир: 4 Мбит/с, Tas-ix: 100Мбит/с)

    • Steam: 76561198442747843

    • Telegram: i_Invoker

    • Карма: 1128


    • Наличие запрета:

    • Награды: 22 (Подробнее)
      Admin (Количество: 1) Авторитет (Количество: 1) Активный релизер 1 (Количество: 1) Активный релизер 2 (Количество: 1) Активный сидер 1 (Количество: 1)
  • Создавать темы 19-Ноя-2019 17:39 (спустя 1 месяц 2 дня)

    http://uztor.pw/viewtopic.php?t=1841

    _________________

      -746

    • Сообщений: 197

    • Откуда: Космический Станция

    Создавать темы 19-Ноя-2019 17:39 (спустя 26 секунд)

    Топик был перенесен из форума Аниме Сериалы (HD) в форум Архив
    -InVoKeR-
    Показать сообщения:    
    Главная  Технический форум  Архив

    Текущее время: 09-Дек 13:45

    Часовой пояс: UTC + 5



    Вы не можете начинать темы
    Вы не можете отвечать на сообщения
    Вы не можете редактировать свои сообщения
    Вы не можете удалять свои сообщения
    Вы не можете голосовать в опросах
    Вы не можете прикреплять файлы к сообщениям
    Вы не можете скачивать файлы