В пустыне смерти / Into the Badlands / Сезон 2 Полный / Серии 1-10 из 10 (Дэвид Добкин) [2017 г., Боевик, драма, приключения, экранизация, WEB-DLRip] MVO (LostFilm) + Original Eng :: UZTOR.PW Лучший трекер в зоне TAS-IX!
Регистрация ·
Имя: Пароль:  
· Забыли пароль?

Навигация по Торрент раздачам и Форум

 В пустыне смерти / Into the Badlands / Сезон 2 Полный / Серии 1-10 из 10 (Дэвид Добкин) [2017 г., Боевик, драма, приключения, экранизация, WEB-DLRip] MVO (LostFilm) + Original Eng

Главная  Сериалы  Американские и Европейские сериалы
Статистика раздачи
Нет
 
     
 
 
Автор Сообщение
  • NuRKHoNoFF ®
  • Не в сети
  • 5064
  • Пол: Мужской

  • Стаж: 10 месяцев 1 день

  • Сообщений: 730

  • Откуда: Каттакурган

  • Провайдер: TPS TPS

  • Карма: 574


  • Наличие запрета:

  • Награды: 17 (Подробнее)
    Активный релизер 1 (Количество: 1) Активный релизер 2 (Количество: 1) Активный релизер 3 (Количество: 1) Активный релизер 4 (Количество: 1) Активный релизер 5 (Количество: 1)
  • Создавать темы 30-Сен-2019 20:22

    В пустыне смерти / Into the Badlands -Год выпуска: 2017
    Страна: США
    Жанр: Боевик, драма, приключения, экранизация
    Продолжительность: 10x ~ 00:45:00
    Перевод: Профессиональный (многоголосый, закадровый) [LostFilm]-Режиссер: Пако Кабесас, Тоа Фрейзер, Дэвид Добкин-В ролях: Дэниэл Ву, Орла Брэйди, Эмили Бичем, Арамис Найт, Элли Иоаннидес, Ник Фрост, Шерман Огастас, Сара Болгер, Оливер Старк, Мадлен Манток-Описание: Приключенческий боевик о двух друзьях. В пустыне смерти, какие испытания предстоит пройти главным героям на пути просвещения. Ради обретения высшей мудрости мастер боевых искусств Санни и его юный напарник решают пройти через неизведанные земли. Они знают, что там их будут встречать враждебно, но ради высшей цели главные герои готовы вынести всё. В основу сюжета сериала был положен китайский роман под названием «Путешествие на Запад». Во время путешествия Санни покажет в полной мере своё мастерство, а его юный друг сможет многому научиться, и владению собственным телом, и контролю над собственным духом.- -Качество: WEB-DLRip
    Формат: AVI
    Видео кодек: XviD
    Аудио кодек: MP3
    Видео: 720x400, XviD ~1500 kbps avg, 0.18 bit/pixel
    Аудио №1: 48 kHz, MPEG Layer 3, 2 ch, ~128.00 kbps avg | RUS
    Аудио №2: 48 kHz, MPEG Layer 3, 2 ch, ~128.00 kbps avg | ENG-

    MediaInfo

    General
    Complete name : Into the Badlands\Season 2\Into.The.Badlands.s02e01.LostFilm.avi
    Format : AVI
    Format/Info : Audio Video Interleave
    File size : 501 MiB
    Duration : 43 min 6 s
    Overall bit rate : 1 624 kb/s
    Writing application : VirtualDubMod 1.5.10.3 | www.virtualdub-fr.org || (build 2550/release)
    Writing library : VirtualDubMod build 2550/release
    Video
    ID : 0
    Format : MPEG-4 Visual
    Format profile : Advanced Simple@L5
    Format settings : BVOP2 / Custom Matrix
    Format settings, BVOP : 2
    Format settings, QPel : No
    Format settings, GMC : No warppoints
    Format settings, Matrix : Custom
    Codec ID : XVID
    Codec ID/Hint : XviD
    Duration : 43 min 6 s
    Bit rate : 1 355 kb/s
    Width : 720 pixels
    Height : 400 pixels
    Display aspect ratio : 16:9
    Frame rate : 23.976 (24000/1001) FPS
    Color space : YUV
    Chroma subsampling : 4:2:0
    Bit depth : 8 bits
    Scan type : Progressive
    Compression mode : Lossy
    Bits/(Pixel*Frame) : 0.196
    Stream size : 418 MiB (83%)
    Writing library : XviD 73
    Audio #1
    ID : 1
    Format : MPEG Audio
    Format version : Version 1
    Format profile : Layer 3
    Format settings : Joint stereo / MS Stereo
    Codec ID : 55
    Codec ID/Hint : MP3
    Duration : 43 min 5 s
    Bit rate mode : Constant
    Bit rate : 128 kb/s
    Channel(s) : 2 channels
    Sampling rate : 48.0 kHz
    Compression mode : Lossy
    Stream size : 39.4 MiB (8%)
    Alignment : Aligned on interleaves
    Interleave, duration : 42 ms (1.00 video frame)
    Interleave, preload duration : 504 ms
    Audio #2
    ID : 2
    Format : MPEG Audio
    Format version : Version 1
    Format profile : Layer 3
    Format settings : Joint stereo / MS Stereo
    Codec ID : 55
    Codec ID/Hint : MP3
    Duration : 43 min 6 s
    Bit rate mode : Constant
    Bit rate : 128 kb/s
    Channel(s) : 2 channels
    Sampling rate : 48.0 kHz
    Compression mode : Lossy
    Stream size : 39.5 MiB (8%)
    Alignment : Aligned on interleaves
    Interleave, duration : 42 ms (1.00 video frame)
    Interleave, preload duration : 504 ms

    Раздача ведется путем добавления новых серий

    Когда раздача ведётся путём добавления новых серий, при каждом добавлении создётся новый торрент. Чтобы начать докачку новой серии, пользователям необходимо сделать следующее:
    [1] остановить скачивание,
    [2] удалить старый торрент у себя из клиента (старые серии удалять не надо),
    [3] скачать новый торрент и запустить его у себя в клиенте вместо старого, при этом указать клиенту путь в старую папку, куда и должно происходить скачивание новых серий.
    Ваш клиент при этом должен произвести хеширование (проверку) старой папки (если не производит сам - помогите ему сделать это), и будет докачивать только те серии, которых у вас ещё нет. Старые серии при этом не удаляются, а продолжают раздаваться!
    Eсли вы уже удалили старые серии, то предотвратить повторную закачку старых серий можно, отжав галочку в соответсвующих местах при запуске нового торрента. По возможности, желательно не удалять старые серии как можно дольше, чтобы релизёр не столько продолжал раздавать старые серии, а смог сконцентрироваться на новых.


    _________________
    • NuRKHoNoFF ®
    • Не в сети
    • 5064
    • Пол: Мужской

    • Стаж: 10 месяцев 1 день

    • Сообщений: 730

    • Откуда: Каттакурган

    • Провайдер: TPS TPS

    • Карма: 574


    • Наличие запрета:

    • Награды: 17 (Подробнее)
      Активный релизер 1 (Количество: 1) Активный релизер 2 (Количество: 1) Активный релизер 3 (Количество: 1) Активный релизер 4 (Количество: 1) Активный релизер 5 (Количество: 1)
  • Создавать темы 30-Сен-2019 21:05 (спустя 43 минуты)

    Добавлен в полной Сезон 2 Всем Приятного Просмотра! Скоро будет Сезон 3 Предыдущие Сезон вы можете скачать здесь В пустыне смерти / Into the Badlands / Сезон 1 Полный / Серии 1-6 из 6 (Пако Кабесас, Тоа Фрейзер, Дэвид Добкин) [2015 г., Боевик, Драма, Приключения, WEB-DLRip] MVO (LostFilm) + Original Eng

    _________________
    Показать сообщения:    
    Главная  Сериалы  Американские и Европейские сериалы

    Текущее время: 19-Окт 18:50

    Часовой пояс: UTC + 5



    Вы не можете начинать темы
    Вы не можете отвечать на сообщения
    Вы не можете редактировать свои сообщения
    Вы не можете удалять свои сообщения
    Вы не можете голосовать в опросах
    Вы не можете прикреплять файлы к сообщениям
    Вы не можете скачивать файлы