Ходячие мертвецы / The Walking Dead / Сезон 10 / Серии 1-5 из 16 (Грег Никотеро, Майкл Е. Сатраземис, Эрнест Р. Дикерсон) [2019, Ужасы, фантастика, триллер, драма, WEB-DLRip] MVO (Octopus) :: UZTOR.PW Лучший трекер в зоне TAS-IX!
Регистрация ·
Имя: Пароль:  
· Забыли пароль?
Уважаемые гости сайта! Добро Пожаловать на наш торрент трекер,где Вы можете бесплатно скачать любой Софт,Фильмы,Музыку и многое другое! А так же постоянно ведется набор модераторов и релизеров. Зарегистрируйтесь сейчас, чтобы получить доступ ко всем функциям. После регистрации или входа на сайт вы сможете создавать темы, отвечать на сообщения и скачивать файлы.

Навигация по Торрент раздачам и Форум

До нового обновления Торрент-Трекер осталось

 Ходячие мертвецы / The Walking Dead / Сезон 10 / Серии 1-5 из 16 (Грег Никотеро, Майкл Е. Сатраземис, Эрнест Р. Дикерсон) [2019, Ужасы, фантастика, триллер, драма, WEB-DLRip] MVO (Octopus)

Главная  Сериалы  Американские и Европейские сериалы
Статистика раздачи
Нет
 
     
 
 
Автор Сообщение
  • NuRKHoNoFF ®
  • Не в сети
  • 5064
  • Пол: Мужской

  • Стаж: 11 месяцев 2 дня

  • Сообщений: 856

  • Откуда: Каттакурган

  • Провайдер: TPS TPS

  • Карма: 575


  • Наличие запрета:

  • Награды: 17 (Подробнее)
    Активный релизер 1 (Количество: 1) Активный релизер 2 (Количество: 1) Активный релизер 3 (Количество: 1) Активный релизер 4 (Количество: 1) Активный релизер 5 (Количество: 1)
  • Создавать темы 30-Сен-2019 19:31

    ☠ Ходячие мертвецы ☠ / ☠ The Walking Dead ☠ -Название: Ходячие мертвецы
    Оригинальное название: The Walking Dead
    Год выхода: 2019
    Жанр: Ужасы, триллер, драма, приключения-Режиссер: Грег Никотеро, Майкл Е. Сатраземис, Эрнест Р. Дикерсон-В ролях: Норман Ридус, Мелисса Сюзанн МакБрайд, Эндрю Линкольн, Данай Гурира, Лорен Кохэн, Чендлер Риггз, Джош Макдермитт, Кристиан Серратос, Аланна Мастерсон, Сет Гиллиам-Описание: Сериал рассказывает историю жизни семьи шерифа после того, как «зомби» - эпидемия апокалиптических масштабов захлестнула земной шар. Шериф Рик Граймс путешествует со своей семьей и небольшой группой выживших в поисках безопасного места для жизни. Но постоянный страх смерти каждый день приносит тяжелые потери, заставляя героев почувствовать глубины человеческой жестокости. Рик пытается спасти свою семью, и открывает для себя, что всепоглощающий страх тех, кто выжил, может быть опаснее бессмысленных мертвецов, бродящих по земле.- -Страна: США
    Продолжительность: ~ 00:43:00 серия
    Перевод: Профессиональный (многоголосый, закадровый) - [Octopus]-Кодек: | XviD | AVI |
    Качество: WEB-DLRip
    Видео: ~ 1536 kbps, 720x400
    Аудио: AC3, 2 ch, 384 kbps
    Субтитры: Отсутствуют
    Присутствует аудио-реклама!-

    Релиз

    Переведено и озвучено студией Octopus

    MediaInfo

    General
    Complete name : The Walking Dead S10\The.Walking.Dead.s10e01.400p.Octopus.avi
    Format : AVI
    Format/Info : Audio Video Interleave
    File size : 738 MiB
    Duration : 53 min 26 s
    Overall bit rate : 1 930 kb/s
    Writing application : VirtualDubMod 1.5.10.3 | www.virtualdub-fr.org || (build 2550/release)
    Writing library : VirtualDubMod build 2550/release
    Video
    ID : 0
    Format : MPEG-4 Visual
    Format profile : Advanced Simple@L5
    Format settings : BVOP2 / Custom Matrix
    Format settings, BVOP : 2
    Format settings, QPel : No
    Format settings, GMC : No warppoints
    Format settings, Matrix : Custom
    Codec ID : XVID
    Codec ID/Hint : XviD
    Duration : 53 min 26 s
    Bit rate : 1 536 kb/s
    Width : 720 pixels
    Height : 400 pixels
    Display aspect ratio : 16:9
    Frame rate : 23.976 (24000/1001) FPS
    Color space : YUV
    Chroma subsampling : 4:2:0
    Bit depth : 8 bits
    Scan type : Progressive
    Compression mode : Lossy
    Bits/(Pixel*Frame) : 0.222
    Stream size : 587 MiB (80%)
    Writing library : XviD 1.2.1 (UTC 2008-12-04)
    Audio
    ID : 1
    Format : AC-3
    Format/Info : Audio Coding 3
    Commercial name : Dolby Digital
    Codec ID : 2000
    Duration : 53 min 26 s
    Bit rate mode : Constant
    Bit rate : 384 kb/s
    Channel(s) : 2 channels
    Channel layout : L R
    Sampling rate : 48.0 kHz
    Frame rate : 31.250 FPS (1536 SPF)
    Bit depth : 16 bits
    Compression mode : Lossy
    Stream size : 147 MiB (20%)
    Alignment : Split across interleaves
    Interleave, duration : 42 ms (1.00 video frame)
    Interleave, preload duration : 500 ms
    Service kind : Complete Main

    Раздача ведется путем добавления новых серий

    Когда раздача ведётся путём добавления новых серий, при каждом добавлении создётся новый торрент. Чтобы начать докачку новой серии, пользователям необходимо сделать следующее:
    [1] остановить скачивание,
    [2] удалить старый торрент у себя из клиента (старые серии удалять не надо),
    [3] скачать новый торрент и запустить его у себя в клиенте вместо старого, при этом указать клиенту путь в старую папку, куда и должно происходить скачивание новых серий.
    Ваш клиент при этом должен произвести хеширование (проверку) старой папки (если не производит сам - помогите ему сделать это), и будет докачивать только те серии, которых у вас ещё нет. Старые серии при этом не удаляются, а продолжают раздаваться!
    Eсли вы уже удалили старые серии, то предотвратить повторную закачку старых серий можно, отжав галочку в соответсвующих местах при запуске нового торрента. По возможности, желательно не удалять старые серии как можно дольше, чтобы релизёр не столько продолжал раздавать старые серии, а смог сконцентрироваться на новых.


    _________________


    Последний раз редактировалось: NuRKHoNoFF (2019-11-02 19:18), всего редактировалось 2 раз(а)
    • NuRKHoNoFF ®
    • Не в сети
    • 5064
    • Пол: Мужской

    • Стаж: 11 месяцев 2 дня

    • Сообщений: 856

    • Откуда: Каттакурган

    • Провайдер: TPS TPS

    • Карма: 575


    • Наличие запрета:

    • Награды: 17 (Подробнее)
      Активный релизер 1 (Количество: 1) Активный релизер 2 (Количество: 1) Активный релизер 3 (Количество: 1) Активный релизер 4 (Количество: 1) Активный релизер 5 (Количество: 1)
  • Создавать темы 13-Окт-2019 04:13 (спустя 12 дней)

    Добавлена + 1-2-я серия

    _________________
    • NuRKHoNoFF ®
    • Не в сети
    • 5064
    • Пол: Мужской

    • Стаж: 11 месяцев 2 дня

    • Сообщений: 856

    • Откуда: Каттакурган

    • Провайдер: TPS TPS

    • Карма: 575


    • Наличие запрета:

    • Награды: 17 (Подробнее)
      Активный релизер 1 (Количество: 1) Активный релизер 2 (Количество: 1) Активный релизер 3 (Количество: 1) Активный релизер 4 (Количество: 1) Активный релизер 5 (Количество: 1)
  • Создавать темы 02-Ноя-2019 19:19 (спустя 20 дней)

    Добавлена + 3-4-5-я серия

    _________________
    Показать сообщения:    
    Главная  Сериалы  Американские и Европейские сериалы

    Текущее время: 20-Ноя 11:30

    Часовой пояс: UTC + 5



    Вы не можете начинать темы
    Вы не можете отвечать на сообщения
    Вы не можете редактировать свои сообщения
    Вы не можете удалять свои сообщения
    Вы не можете голосовать в опросах
    Вы не можете прикреплять файлы к сообщениям
    Вы не можете скачивать файлы