Человек-паук: Вдали от дома / Spider-Man: Far from Home (Джон Уоттс / Jon Watts) [2019, Фантастика, боевик, приключения, BDRip 1080p HEVC 10bit] :: UZTOR.PW Лучший трекер в зоне TAS-IX!
Регистрация ·
Имя: Пароль:  
· Забыли пароль?
Уважаемые гости сайта! Добро Пожаловать на наш торрент трекер,где Вы можете бесплатно скачать любой Софт,Фильмы,Музыку и многое другое! А так же постоянно ведется набор модераторов и релизеров. Зарегистрируйтесь сейчас, чтобы получить доступ ко всем функциям. После регистрации или входа на сайт вы сможете создавать темы, отвечать на сообщения и скачивать файлы.

Навигация по Торрент раздачам и Форум

До нового обновления Торрент-Трекер осталось

 Человек-паук: Вдали от дома / Spider-Man: Far from Home (Джон Уоттс / Jon Watts) [2019, Фантастика, боевик, приключения, BDRip 1080p HEVC 10bit]

Главная  Кинофильмы  Зарубежные кинофильмы  HD
Статистика раздачи
Скачал: [ 1 ]
 
     
 
 
Автор Сообщение
  • normaluser ®
  • Не в сети
  • 5388
  • VIP пользователь

  • Пол: Мужской

  • Стаж: 5 месяцев 15 дней

  • Сообщений: 35

  • Откуда: Uzbekistan Airways

  • Провайдер: UzOnline UzOnline

  • Telegram: fastfood_king

  • Карма: 40


  • Наличие запрета:

  • Награды: Нет
  • Создавать темы 24-Сен-2019 18:54

    Человек-паук: Вдали от дома / Spider-Man: Far from Home ИНФОРМАЦИЯ:
    Год выпуска: 2019
    Страна: США
    Жанр: Фантастика, боевик, приключения
    Продолжительность: 02:09:24
    Перевод:
    Дублированный | [iTunes] |
    Оригинальная аудиодорожка: английская
    Субтитры: английские, русские и куча остальных
    Режиссер: Джон Уоттс / Jon Watts
    В РОЛЯХ:
    Том Холланд (II), Зендая Колеман, Энгаури Райс, Джон Фавро, Джейк Джилленхол, Сэмюэл Л. Джексон, Коби Смолдерс, Мариса Томей, Мартин Старр, Нуман Аджар, Джейкоб Баталон, Тони Револори ОПИСАНИЕ:
    Питер Паркер вместе с друзьями отправляется на летние каникулы в Европу. Однако отдохнуть приятелям вряд ли удастся - Питеру придется согласиться помочь Нику Фьюри раскрыть тайну существ, вызывающих стихийные бедствия и разрушения по всему континенту. Качество: BDRip-HEVC 1080p 10 Bit
    Формат: MKV
    Видео: 1920x800 (2.40:1), 23,976 fps, x265 ~1 501 kb/s
    Аудио 1: 48 kHz, AC-3, 3/2 (L,C,R,l,r) + LFE ch, ~384 kb/s avg | русская
    Аудио 2: 48 kHz, HE-AAC / 8 ch, ~353 kb/s avg | английская

    MediaInfo

    General
    Unique ID : 183440522579084852231058465227563048141 (0x8A015C0B229EE98280087D7594579CCD)
    Complete name : H:\ЧелоПук.mkv
    Format : Matroska
    Format version : Version 4
    File size : 2.06 GiB
    Duration : 2 h 9 min
    Overall bit rate : 2 279 kb/s
    Movie name : Spider-Man Far from Home 2019 | AllTor.Me
    Encoded date : UTC 2019-09-25 20:38:06
    Writing application : mkvmerge v9.4.0 ('Knurl') 64bit
    Writing library : libebml v1.3.4 + libmatroska v1.4.5
    Writing frontend : StaxRip v2.0.2.0, Encoded by JoyBell
    Video
    ID : 1
    Format : HEVC
    Format/Info : High Efficiency Video Coding
    Format profile : Main 10@L4@Main
    Codec ID : V_MPEGH/ISO/HEVC
    Duration : 2 h 9 min
    Bit rate : 1 501 kb/s
    Width : 1 920 pixels
    Height : 800 pixels
    Display aspect ratio : 2.40:1
    Frame rate mode : Constant
    Frame rate : 23.976 (24000/1001) FPS
    Color space : YUV
    Chroma subsampling : 4:2:0
    Bit depth : 10 bits
    Bits/(Pixel*Frame) : 0.041
    Stream size : 1.36 GiB (66%)
    Title : Spider-Man Far from Home 2019 | AllTor.Me
    Writing library : x265 3.1.2+1-76650bab70f9:[Windows][MSVC 1922][64 bit] 10bit
    Encoding settings : cpuid=1111039 / frame-threads=4 / numa-pools=16 / wpp / no-pmode / no-pme / no-psnr / ssim / log-level=2 / input-csp=1 / input-res=1920x800 / interlace=0 / total-frames=186144 / level-idc=0 / high-tier=1 / uhd-bd=0 / ref=4 / no-allow-non-conformance / no-repeat-headers / annexb / no-aud / no-hrd / info / hash=0 / no-temporal-layers / open-gop / min-keyint=23 / keyint=250 / gop-lookahead=0 / bframes=8 / b-adapt=2 / b-pyramid / bframe-bias=40 / rc-lookahead=80 / lookahead-slices=4 / scenecut=40 / radl=0 / no-splice / no-intra-refresh / ctu=64 / min-cu-size=8 / rect / no-amp / max-tu-size=32 / tu-inter-depth=1 / tu-intra-depth=1 / limit-tu=0 / rdoq-level=2 / dynamic-rd=0.00 / ssim-rd / signhide / no-tskip / nr-intra=0 / nr-inter=0 / constrained-intra / strong-intra-smoothing / max-merge=5 / limit-refs=3 / limit-modes / me=3 / subme=5 / merange=57 / temporal-mvp / weightp / no-weightb / no-analyze-src-pics / no-deblock / no-sao / no-sao-non-deblock / rd=4 / early-skip / rskip / no-fast-intra / no-tskip-fast / no-cu-lossless / no-b-intra / splitrd-skip / rdpenalty=0 / psy-rd=0.00 / psy-rdoq=1.00 / no-rd-refine / no-lossless / cbqpoffs=0 / crqpoffs=0 / rc=abr / bitrate=1500 / qcomp=0.50 / qpstep=4 / stats-write=0 / stats-read=2 / cplxblur=20.0 / qblur=0.5 / ipratio=1.40 / pbratio=1.30 / aq-mode=3 / aq-strength=0.80 / cutree / zone-count=0 / no-strict-cbr / qg-size=32 / no-rc-grain / qpmax=69 / qpmin=0 / no-const-vbv / sar=0 / overscan=0 / videoformat=5 / range=0 / colorprim=2 / transfer=2 / colormatrix=2 / chromaloc=0 / display-window=0cll=0,0 / min-luma=0 / max-luma=1023 / log2-max-poc-lsb=8 / vui-timing-info / vui-hrd-info / slices=1 / no-opt-qp-pps / no-opt-ref-list-length-pps / multi-pass-opt-rps / scenecut-bias=0.05 / no-opt-cu-delta-qp / no-aq-motion / no-hdr / no-hdr-opt / no-dhdr10-opt / no-idr-recovery-sei / analysis-reuse-level=10 / scale-factor=0 / refine-intra=0 / refine-inter=0 / refine-mv=0 / refine-ctu-distortion=0 / no-limit-sao / ctu-info=0 / no-lowpass-dct / refine-analysis-type=0 / copy-pic=1 / max-ausize-factor=1.0 / no-dynamic-refine / no-single-sei / no-hevc-aq / no-svt / no-field / qp-adaptation-range=1.00
    Default : Yes
    Forced : No
    Audio #1
    ID : 2
    Format : AAC LC
    Format/Info : Advanced Audio Codec Low Complexity
    Codec ID : A_AAC-2
    Duration : 2 h 9 min
    Bit rate : 353 kb/s
    Channel(s) : 8 channels
    Channel layout : C L R Ls Rs Lb Rb LFE
    Sampling rate : 48.0 kHz
    Frame rate : 46.875 FPS (1024 SPF)
    Compression mode : Lossy
    Delay relative to video : 9 ms
    Stream size : 324 MiB (15%)
    Language : English
    Default : No
    Forced : No
    Audio #2
    ID : 26
    Format : AC-3
    Format/Info : Audio Coding 3
    Commercial name : Dolby Digital
    Codec ID : A_AC3
    Duration : 2 h 9 min
    Bit rate mode : Constant
    Bit rate : 384 kb/s
    Channel(s) : 6 channels
    Channel layout : L R C LFE Ls Rs
    Sampling rate : 48.0 kHz
    Frame rate : 31.250 FPS (1536 SPF)
    Bit depth : 16 bits
    Compression mode : Lossy
    Stream size : 355 MiB (17%)
    Title : DUB
    Language : Russian
    Service kind : Complete Main
    Default : Yes
    Forced : Yes
    Text #1
    ID : 3
    Format : PGS
    Muxing mode : zlib
    Codec ID : S_HDMV/PGS
    Codec ID/Info : Picture based subtitle format used on BDs/HD-DVDs
    Duration : 2 h 7 min
    Bit rate : 20.0 kb/s
    Count of elements : 3450
    Stream size : 18.3 MiB (1%)
    Language : English
    Default : No
    Forced : No
    Text #2
    ID : 4
    Format : UTF-8
    Codec ID : S_TEXT/UTF8
    Codec ID/Info : UTF-8 Plain Text
    Duration : 2 h 7 min
    Bit rate : 65 b/s
    Count of elements : 1725
    Stream size : 61.1 KiB (0%)
    Language : English
    Default : No
    Forced : No
    Text #3
    ID : 5
    Format : VobSub
    Muxing mode : zlib
    Codec ID : S_VOBSUB
    Codec ID/Info : Picture based subtitle format used on DVDs
    Duration : 2 h 8 min
    Bit rate : 7 219 b/s
    Count of elements : 1929
    Stream size : 6.62 MiB (0%)
    Language : English
    Default : No
    Forced : No
    Text #4
    ID : 6
    Format : VobSub
    Muxing mode : zlib
    Codec ID : S_VOBSUB
    Codec ID/Info : Picture based subtitle format used on DVDs
    Duration : 2 h 8 min
    Bit rate : 5 477 b/s
    Count of elements : 1674
    Stream size : 5.04 MiB (0%)
    Language : French
    Default : No
    Forced : No
    Text #5
    ID : 7
    Format : VobSub
    Muxing mode : zlib
    Codec ID : S_VOBSUB
    Codec ID/Info : Picture based subtitle format used on DVDs
    Duration : 2 h 8 min
    Bit rate : 6 358 b/s
    Count of elements : 1719
    Stream size : 5.85 MiB (0%)
    Language : Spanish
    Default : No
    Forced : No
    Text #6
    ID : 8
    Format : VobSub
    Muxing mode : zlib
    Codec ID : S_VOBSUB
    Codec ID/Info : Picture based subtitle format used on DVDs
    Duration : 2 h 8 min
    Bit rate : 40 b/s
    Count of elements : 11
    Stream size : 38.5 KiB (0%)
    Language : French
    Default : No
    Forced : No
    Text #7
    ID : 9
    Format : UTF-8
    Codec ID : S_TEXT/UTF8
    Codec ID/Info : UTF-8 Plain Text
    Duration : 2 h 8 min
    Bit rate : 92 b/s
    Count of elements : 1941
    Stream size : 87.7 KiB (0%)
    Language : Arabic
    Default : No
    Forced : No
    Text #8
    ID : 10
    Format : UTF-8
    Codec ID : S_TEXT/UTF8
    Codec ID/Info : UTF-8 Plain Text
    Duration : 2 h 9 min
    Bit rate : 158 b/s
    Count of elements : 1918
    Stream size : 150 KiB (0%)
    Language : Bengali
    Default : No
    Forced : No
    Text #9
    ID : 11
    Format : UTF-8
    Codec ID : S_TEXT/UTF8
    Codec ID/Info : UTF-8 Plain Text
    Duration : 2 h 8 min
    Bit rate : 46 b/s
    Count of elements : 1748
    Stream size : 44.1 KiB (0%)
    Language : Chinese
    Default : No
    Forced : No
    Text #10
    ID : 12
    Format : UTF-8
    Codec ID : S_TEXT/UTF8
    Codec ID/Info : UTF-8 Plain Text
    Duration : 2 h 8 min
    Bit rate : 50 b/s
    Count of elements : 1395
    Stream size : 47.2 KiB (0%)
    Language : Danish
    Default : No
    Forced : No
    Text #11
    ID : 13
    Format : UTF-8
    Codec ID : S_TEXT/UTF8
    Codec ID/Info : UTF-8 Plain Text
    Duration : 2 h 8 min
    Bit rate : 56 b/s
    Count of elements : 1357
    Stream size : 53.4 KiB (0%)
    Language : Dutch
    Default : No
    Forced : No
    Text #12
    ID : 14
    Format : UTF-8
    Codec ID : S_TEXT/UTF8
    Codec ID/Info : UTF-8 Plain Text
    Duration : 2 h 8 min
    Bit rate : 100 b/s
    Count of elements : 2007
    Stream size : 94.2 KiB (0%)
    Language : Persian
    Default : No
    Forced : No
    Text #13
    ID : 15
    Format : UTF-8
    Codec ID : S_TEXT/UTF8
    Codec ID/Info : UTF-8 Plain Text
    Duration : 2 h 8 min
    Bit rate : 63 b/s
    Count of elements : 1746
    Stream size : 59.8 KiB (0%)
    Language : German
    Default : No
    Forced : No
    Text #14
    ID : 16
    Format : UTF-8
    Codec ID : S_TEXT/UTF8
    Codec ID/Info : UTF-8 Plain Text
    Duration : 2 h 8 min
    Bit rate : 129 b/s
    Count of elements : 1989
    Stream size : 122 KiB (0%)
    Language : Greek
    Default : No
    Forced : No
    Text #15
    ID : 17
    Format : UTF-8
    Codec ID : S_TEXT/UTF8
    Codec ID/Info : UTF-8 Plain Text
    Duration : 2 h 8 min
    Bit rate : 85 b/s
    Count of elements : 1600
    Stream size : 80.3 KiB (0%)
    Language : Hebrew
    Default : No
    Forced : No
    Text #16
    ID : 18
    Format : UTF-8
    Codec ID : S_TEXT/UTF8
    Codec ID/Info : UTF-8 Plain Text
    Duration : 2 h 8 min
    Bit rate : 65 b/s
    Count of elements : 2008
    Stream size : 61.2 KiB (0%)
    Language : Indonesian
    Default : No
    Forced : No
    Text #17
    ID : 19
    Format : UTF-8
    Codec ID : S_TEXT/UTF8
    Codec ID/Info : UTF-8 Plain Text
    Duration : 2 h 8 min
    Bit rate : 57 b/s
    Count of elements : 1649
    Stream size : 54.4 KiB (0%)
    Language : Italian
    Default : No
    Forced : No
    Text #18
    ID : 20
    Format : UTF-8
    Codec ID : S_TEXT/UTF8
    Codec ID/Info : UTF-8 Plain Text
    Duration : 2 h 8 min
    Bit rate : 57 b/s
    Count of elements : 1675
    Stream size : 54.1 KiB (0%)
    Language : Portuguese
    Default : No
    Forced : No
    Text #19
    ID : 21
    Format : UTF-8
    Codec ID : S_TEXT/UTF8
    Codec ID/Info : UTF-8 Plain Text
    Duration : 2 h 8 min
    Bit rate : 92 b/s
    Count of elements : 1666
    Stream size : 86.8 KiB (0%)
    Language : Russian
    Default : No
    Forced : No
    Text #20
    ID : 22
    Format : UTF-8
    Codec ID : S_TEXT/UTF8
    Codec ID/Info : UTF-8 Plain Text
    Duration : 2 h 8 min
    Bit rate : 367 b/s
    Count of elements : 1752
    Stream size : 346 KiB (0%)
    Language : Thai
    Default : No
    Forced : No
    Text #21
    ID : 23
    Format : UTF-8
    Codec ID : S_TEXT/UTF8
    Codec ID/Info : UTF-8 Plain Text
    Duration : 2 h 8 min
    Bit rate : 94 b/s
    Count of elements : 1759
    Stream size : 89.3 KiB (0%)
    Language : Ukrainian
    Default : No
    Forced : No
    Text #22
    ID : 24
    Format : UTF-8
    Codec ID : S_TEXT/UTF8
    Codec ID/Info : UTF-8 Plain Text
    Duration : 2 h 9 min
    Bit rate : 95 b/s
    Count of elements : 2075
    Stream size : 89.8 KiB (0%)
    Language : Vietnamese
    Default : No
    Forced : No
    Text #23
    ID : 25
    Format : UTF-8
    Codec ID : S_TEXT/UTF8
    Codec ID/Info : UTF-8 Plain Text
    Duration : 2 h 8 min
    Bit rate : 0 b/s
    Count of elements : 13
    Stream size : 582 Bytes (0%)
    Title : RUS
    Language : Russian
    Default : Yes
    Forced : Yes
    Menu
    00:00:00.000 : en:Chapter 01
    00:09:35.032 : en:Chapter 02
    00:16:06.715 : en:Chapter 03
    00:25:18.475 : en:Chapter 04
    00:35:26.499 : en:Chapter 05
    00:41:57.014 : en:Chapter 06
    00:49:49.653 : en:Chapter 07
    00:57:09.509 : en:Chapter 08
    01:04:50.636 : en:Chapter 09
    01:15:57.219 : en:Chapter 10
    01:22:48.838 : en:Chapter 11
    01:29:25.193 : en:Chapter 12
    01:36:43.088 : en:Chapter 13
    01:44:47.364 : en:Chapter 14
    01:52:17.063 : en:Chapter 15
    01:57:45.433 : en:Chapter 16


    _________________
    @fastfood_king телеграмм
    • -InVoKeR-
    • Не в сети
    • 5057
    • VIP пользователь

    • Пол: Мужской

    • Стаж: 11 месяцев 27 дней

    • Сообщений: 345

    • Откуда: uztor.pw

    • Провайдер: UzOnline UzOnline

    • Тарифный план: Unlim 4 (Мир: 4 Мбит/с, Tas-ix: 100Мбит/с)

    • Steam: 76561198442747843

    • Telegram: i_Invoker

    • Карма: 1128


    • Наличие запрета:

    • Награды: 22 (Подробнее)
      Admin (Количество: 1) Авторитет (Количество: 1) Активный релизер 1 (Количество: 1) Активный релизер 2 (Количество: 1) Активный сидер 1 (Количество: 1)
  • Создавать темы 12-Ноя-2019 22:55 (спустя 1 месяц 18 дней)

    постер замени

    _________________
    Показать сообщения:    
    Главная  Кинофильмы  Зарубежные кинофильмы  HD

    Текущее время: 14-Ноя 23:44

    Часовой пояс: UTC + 5



    Вы не можете начинать темы
    Вы не можете отвечать на сообщения
    Вы не можете редактировать свои сообщения
    Вы не можете удалять свои сообщения
    Вы не можете голосовать в опросах
    Вы не можете прикреплять файлы к сообщениям
    Вы не можете скачивать файлы