Человек будущего / The Tomorrow Man (Ноубл Линкольн Джонс / Noble Jones) [2019, Драма, мелодрама, WEB-DL 1080p] iTunes :: UZTOR.PW Лучший трекер в зоне TAS-IX!
Регистрация ·
Имя: Пароль:  
· Забыли пароль?
Уважаемые гости сайта! Добро Пожаловать на наш торрент трекер,где Вы можете бесплатно скачать любой Софт,Фильмы,Музыку и многое другое! А так же постоянно ведется набор модераторов и релизеров. Зарегистрируйтесь сейчас, чтобы получить доступ ко всем функциям. После регистрации или входа на сайт вы сможете создавать темы, отвечать на сообщения и скачивать файлы.

Навигация по Торрент раздачам и Форум

До нового обновления Торрент-Трекер осталось

 Человек будущего / The Tomorrow Man (Ноубл Линкольн Джонс / Noble Jones) [2019, Драма, мелодрама, WEB-DL 1080p] iTunes

Главная  Кинофильмы  Зарубежные кинофильмы  HD
Статистика раздачи
Скачал: [ 1 ]
 
     
 
 
Автор Сообщение
  • normaluser ®
  • Не в сети
  • 5388
  • Пол: Мужской

  • Стаж: 5 месяцев 20 дней

  • Сообщений: 36

  • Откуда: Uzbekistan Airways

  • Провайдер: UzOnline UzOnline

  • Telegram: fastfood_king

  • Карма: 40


  • Наличие запрета:

  • Награды: Нет
  • Создавать темы 24-Сен-2019 17:57

    Человек будущего / The Tomorrow Man -Год выпуска: 2019
    Страна: США
    Жанр: Драма, мелодрама
    Продолжительность: 01:35:18
    Перевод(ы):
    #1: Дублированный iTunes-Режиссер: Ноубл Линкольн Джонс / Noble Lincoln Jones-В ролях: Джон Литгоу, Блайт Даннер, Дерек Сесил, Кэтрин Аселтон, Софи Тэтчер, Ив Харлоу, Уэнди Маккена, Изабель Бони, Шон М. Эсслер, Энтони Лафорнара-Описание: Эду Хемслеру давно за шестьдесят, он ведет жизнь одинокого пенсионера и верит в наступление скорого конца света. Эд одержим идеей приготовиться к апокалипсису и поэтому обустраивает во дворе надежное убежище, не жалея денег на пополнение запасов. Несмотря на старческие причуды, сердце Эда оказывается достаточно молодо для новой любви. Однажды в магазине он встречает свою ровесницу Ронни и влюбляется, как юноша. Кажется, что у них нет ничего общего, кроме одиночества, но их знакомство получает продолжение. У Ронни своя травма – она потеряла дочь, ради которой жила. Благодаря Эду она вырывается из ловушки воспоминаний и, в свою очередь, помогает ему освободиться от страха перед будущим.
    - -Качество: WEB-DL 1080p
    Формат: MKV
    Видео: AVC, 1920x800, ~4029 kbps, 23,976 fps
    Аудио #1: AC3, 48 kHz, 384 kbps, 6 ch, RU, iTunes
    Аудио #2: AC3+, 48 kHz, 640 kbps, 6 ch, ENG, Original
    Субтитры: Русские, английские
    Главы: Есть-

    MediaInfo

    General
    Unique ID : 203845338404562234547272715063625713416 (0x995B2F22DCCD019C9FE31C68073B0708)
    Complete name : H:\T_TMRRW_MAN_2019_WEB-DL_1080p_AMAZON-BLUEBIRD.mkv
    Format : Matroska
    Format version : Version 4
    File size : 3.43 GiB
    Duration : 1 h 35 min
    Overall bit rate : 5 157 kb/s
    Movie name : T_TMRRW_MAN_2019_WEB-DL_1080p_AMAZON-BLUEBIRD
    Encoded date : UTC 2019-09-23 18:24:33
    Writing application : mkvmerge v6.9.1 ('Blue Panther') 32bit built on Apr 18 2014 18:15:44
    Writing library : libebml v1.3.0 + libmatroska v1.4.1
    Cover : Yes
    Attachments : cover.png
    Video
    ID : 1
    Format : AVC
    Format/Info : Advanced Video Codec
    Format profile : High@L4
    Format settings : CABAC / 4 Ref Frames
    Format settings, CABAC : Yes
    Format settings, Reference : 4 frames
    Codec ID : V_MPEG4/ISO/AVC
    Duration : 1 h 35 min
    Bit rate mode : Constant
    Bit rate : 4 030 kb/s
    Nominal bit rate : 10 000 kb/s
    Width : 1 920 pixels
    Height : 800 pixels
    Display aspect ratio : 2.40:1
    Frame rate mode : Constant
    Frame rate : 23.976 (24000/1001) FPS
    Color space : YUV
    Chroma subsampling : 4:2:0
    Bit depth : 8 bits
    Scan type : Progressive
    Bits/(Pixel*Frame) : 0.109
    Stream size : 2.68 GiB (78%)
    Title : T_TMRRW_MAN_2019_WEB-DL_1080p_AMAZON-NTG
    Default : Yes
    Forced : No
    Color range : Limited
    Color primaries : BT.709
    Transfer characteristics : BT.709
    Matrix coefficients : BT.709
    Audio #1
    ID : 2
    Format : AC-3
    Format/Info : Audio Coding 3
    Commercial name : Dolby Digital
    Codec ID : A_AC3
    Duration : 1 h 35 min
    Bit rate mode : Constant
    Bit rate : 384 kb/s
    Channel(s) : 6 channels
    Channel layout : L R C LFE Ls Rs
    Sampling rate : 48.0 kHz
    Frame rate : 31.250 FPS (1536 SPF)
    Bit depth : 16 bits
    Compression mode : Lossy
    Stream size : 262 MiB (7%)
    Title : [MVO] DD 5.1 @ 384 kbps (iTunes)
    Language : Russian
    Service kind : Complete Main
    Default : Yes
    Forced : No
    Audio #2
    ID : 3
    Format : E-AC-3
    Format/Info : Enhanced AC-3
    Commercial name : Dolby Digital Plus
    Codec ID : A_EAC3
    Duration : 1 h 35 min
    Bit rate mode : Constant
    Bit rate : 640 kb/s
    Channel(s) : 6 channels
    Channel layout : L R C LFE Ls Rs
    Sampling rate : 48.0 kHz
    Frame rate : 31.250 FPS (1536 SPF)
    Compression mode : Lossy
    Stream size : 436 MiB (12%)
    Title : [ORIGINAL] DD+ 5.1 @ 640 kbps (Amazon)
    Language : English
    Service kind : Complete Main
    Default : No
    Forced : No
    Text #1
    ID : 4
    Format : UTF-8
    Codec ID : S_TEXT/UTF8
    Codec ID/Info : UTF-8 Plain Text
    Title : Full-length
    Language : Russian
    Default : No
    Forced : No
    Text #2
    ID : 5
    Format : UTF-8
    Codec ID : S_TEXT/UTF8
    Codec ID/Info : UTF-8 Plain Text
    Title : Full-length
    Language : English
    Default : No
    Forced : No
    Text #3
    ID : 6
    Format : UTF-8
    Codec ID : S_TEXT/UTF8
    Codec ID/Info : UTF-8 Plain Text
    Title : SDH
    Language : English
    Default : No
    Forced : No


    _________________
    @fastfood_king телеграмм
    Показать сообщения:    
    Главная  Кинофильмы  Зарубежные кинофильмы  HD

    Текущее время: 20-Ноя 12:30

    Часовой пояс: UTC + 5



    Вы не можете начинать темы
    Вы не можете отвечать на сообщения
    Вы не можете редактировать свои сообщения
    Вы не можете удалять свои сообщения
    Вы не можете голосовать в опросах
    Вы не можете прикреплять файлы к сообщениям
    Вы не можете скачивать файлы