Хеллбой: Герой из пекла / Hellboy (Гильермо Дель Торо / Guillermo Del Toro) [2004, Фантастика, фэнтези, боевик, приключения, HDRip-AVC] [Director's cut] :: UZTOR.PW Лучший трекер в зоне TAS-IX!
Регистрация ·
Имя: Пароль:  
· Забыли пароль?

Навигация по Торрент раздачам и Форум

 Хеллбой: Герой из пекла / Hellboy (Гильермо Дель Торо / Guillermo Del Toro) [2004, Фантастика, фэнтези, боевик, приключения, HDRip-AVC] [Director's cut]

Главная  Кинофильмы  Зарубежные кинофильмы  HD-AVC
Статистика раздачи
Нет
 
     
 
 
Автор Сообщение
  • -InVoKeR- ®
  • Не в сети
  • 5057
  • VIP пользователь

  • Пол: Мужской

  • Стаж: 11 месяцев 2 дня

  • Сообщений: 299

  • Откуда: uztor.pw

  • Провайдер: UzOnline UzOnline

  • Тарифный план: Unlim 4 (Мир: 4 Мбит/с, Tas-ix: 100Мбит/с)

  • Steam: 76561198442747843

  • Telegram: i_Invoker

  • Карма: 1128


  • Наличие запрета:

  • Награды: 22 (Подробнее)
    Admin (Количество: 1) Авторитет (Количество: 1) Активный релизер 1 (Количество: 1) Активный релизер 2 (Количество: 1) Активный сидер 1 (Количество: 1)
  • Создавать темы 21-Сен-2019 22:33

    Хеллбой: Герой из пекла / Hellboy--
    Год выхода: 2004
    Страна: США
    Студия: Columbia Pictures, Revolution Studios
    Жанр: Фантастика, фэнтези, боевик, приключения
    Продолжительность: 02:12:28
    Перевод: Дублированный (со вставками многоголоски)-Режиссер: Гильермо Дель Торо-В ролях: Рон Перлман, Джон Хёрт, Селма Блэр, Руперт Эванс, Карел Роден, Джеффри Тэмбор, Даг Джонс, Брайан Стил, Ладислав Беран, Бидди Ходсон, Кори Джонсон, Кевин Трэйнор, Брайан Каспе, Джеймс Бэбсон, Стивен Фишер, Гарт Купер, Энгус МакИннес, Марк Тейлор-О фильме: Вторая мировая война. Нацисты терпят одно сокрушительное поражение за другим. В результате исследования оккультных ритуалов в суперсекретной лаборатории учёным, работающим на фашистский режим, удаётся поднять из небытия Демона Ада, который должен помочь переломить ход войны. Но в научную лабораторию тайно проникает отряд союзников и поворачивает это мистическое и грозное оружие против нацистов. Однако никто из участников эксперимента и не предполагает, что врата потустороннего мира после открытия окажутся неподвластны людям, и им придется столкнуться с существами ещё более опасными и непредсказуемыми, чем Демон Ада…- -Качество: HDRip-AVC
    Формат: MKV
    Видео: MPEG-4 AVC, 752x408, ~ 710 Кбит/с
    Аудио: AAC-HE, 2 ch, ~ 76 Кбит/с
    Субтитры: Русские, английские--

    MediaInfo

    Общее
    Уникальный идентификатор : 211889756219367134661597871932391014804 (0x9F687B8E5F4FCFD98A02193FDB4BC194)
    Полное имя : D:MOVIESHellboy.2004.HDRip-AVC. ExKinoRay.mkv
    Формат : Matroska
    Версия формата : Version 4 / Version 2
    Размер файла : 747 Мбайт
    Продолжительность : 2 ч. 12 м.
    Общий поток : 788 Кбит/сек
    Дата кодирования : UTC 2018-08-25 04:24:41
    Программа кодирования : mkvmerge v15.0.0 ('Duel with the Devil') 64-bit
    Библиотека кодирования : libebml v1.3.5 + libmatroska v1.4.5
    Видео
    Идентификатор : 1
    Формат : AVC
    Формат/Информация : Advanced Video Codec
    Профиль формата : High@L4.1
    Параметр CABAC формата : Да
    Параметр RefFrames формата : 12 кадров
    Идентификатор кодека : V_MPEG4/ISO/AVC
    Продолжительность : 2 ч. 12 м.
    Битрейт : 710 Кбит/сек
    Ширина : 752 пикселя
    Высота : 408 пикселей
    Соотношение сторон : 1,85:1
    Режим частоты кадров : Постоянный
    Частота кадров : 23,976 (24000/1001) кадра/сек
    Цветовое пространство : YUV
    Субдискретизация насыщенности : 4:2:0
    Битовая глубина : 8 бит
    Тип развёртки : Прогрессивная
    Бит/(Пиксели*Кадры) : 0.097
    Размер потока : 673 Мбайт (90%)
    Библиотека кодирования : x264 core 152 r2851kMod ba24899
    Настройки программы : cabac=1 / ref=12 / deblock=1:-3:-3 / analyse=0x3:0x133 / me=umh / subme=10 / psy=1 / fade_compensate=0.00 / psy_rd=1.00:0.16 / mixed_ref=1 / me_range=32 / chroma_me=1 / trellis=2 / 8x8dct=1 / cqm=0 / deadzone=21,11 / fast_pskip=0 / chroma_qp_offset=-3 / threads=6 / lookahead_threads=1 / sliced_threads=0 / nr=0 / decimate=0 / interlaced=0 / bluray_compat=0 / constrained_intra=0 / bframes=11 / b_pyramid=2 / b_adapt=2 / b_bias=0 / direct=3 / weightb=1 / open_gop=0 / weightp=2 / keyint=240 / keyint_min=23 / scenecut=40 / intra_refresh=0 / rc_lookahead=40 / rc=2pass / mbtree=1 / bitrate=710 / ratetol=1.0 / qcomp=0.60 / qpmin=0 / qpmax=69 / qpstep=4 / cplxblur=20.0 / qblur=0.5 / ip_ratio=1.40 / aq=3:1.00
    Default : Да
    Forced : Нет
    Аудио
    Идентификатор : 2
    Формат : AAC
    Формат/Информация : Advanced Audio Codec
    Профиль формата : HE-AAC / LC
    Идентификатор кодека : A_AAC
    Продолжительность : 2 ч. 12 м.
    Битрейт : 76,0 Кбит/сек
    Каналы : 2 канала
    Расположение каналов : Front: L R
    Частота : 48,0 КГц / 24,0 КГц
    Частота кадров : 23,438 кадра/сек (1024 SPF)
    Метод сжатия : С потерями
    Задержка видео : 31 мс.
    Размер потока : 72,0 Мбайт (10%)
    Default : Да
    Forced : Нет
    Текст #1
    Идентификатор : 3
    Формат : UTF-8
    Идентификатор кодека : S_TEXT/UTF8
    Идентификатор кодека/Информация : UTF-8 Plain Text
    Продолжительность : 2 ч. 5 м.
    Битрейт : 56 бит/сек
    ElementCount : 1179
    Размер потока : 52,0 Кбайт (0%)
    Заголовок : русский
    Язык : Russian
    Default : Нет
    Forced : Нет
    Текст #2
    Идентификатор : 4
    Формат : UTF-8
    Идентификатор кодека : S_TEXT/UTF8
    Идентификатор кодека/Информация : UTF-8 Plain Text
    Продолжительность : 2 ч. 5 м.
    Битрейт : 35 бит/сек
    ElementCount : 1177
    Размер потока : 32,5 Кбайт (0%)
    Заголовок : английский
    Default : Нет
    Forced : Нет

    _________________
    Показать сообщения:    
    Главная  Кинофильмы  Зарубежные кинофильмы  HD-AVC

    Текущее время: 19-Окт 18:49

    Часовой пояс: UTC + 5



    Вы не можете начинать темы
    Вы не можете отвечать на сообщения
    Вы не можете редактировать свои сообщения
    Вы не можете удалять свои сообщения
    Вы не можете голосовать в опросах
    Вы не можете прикреплять файлы к сообщениям
    Вы не можете скачивать файлы