Форсаж: Хоббс и Шоу / Fast & Furious Presents: Hobbs & Shaw (Дэвид Литч / David Litch) [2019, Боевик, приключения, HDTV 1080p, Р] :: UZTOR.PW Лучший трекер в зоне TAS-IX!
Регистрация ·
Имя: Пароль:  
· Забыли пароль?
Уважаемые гости сайта! Добро Пожаловать на наш торрент трекер,где Вы можете бесплатно скачать любой Софт,Фильмы,Музыку и многое другое! А так же постоянно ведется набор модераторов и релизеров. Зарегистрируйтесь сейчас, чтобы получить доступ ко всем функциям. После регистрации или входа на сайт вы сможете создавать темы, отвечать на сообщения и скачивать файлы.

Навигация по Торрент раздачам и Форум

До нового обновления Торрент-Трекер осталось

 Форсаж: Хоббс и Шоу / Fast & Furious Presents: Hobbs & Shaw (Дэвид Литч / David Litch) [2019, Боевик, приключения, HDTV 1080p, Р]

Главная  Кинофильмы  Зарубежные кинофильмы  HD
Статистика раздачи
Качаю: [ 2 ]
Скачал: [ 2 ]
 
     
 
 
Автор Сообщение
  • NuRKHoNoFF ®
  • Не в сети
  • 5064
  • Пол: Мужской

  • Стаж: 10 месяцев 27 дней

  • Сообщений: 843

  • Откуда: Каттакурган

  • Провайдер: TPS TPS

  • Карма: 575


  • Наличие запрета:

  • Награды: 17 (Подробнее)
    Активный релизер 1 (Количество: 1) Активный релизер 2 (Количество: 1) Активный релизер 3 (Количество: 1) Активный релизер 4 (Количество: 1) Активный релизер 5 (Количество: 1)
  • Создавать темы 19-Сен-2019 17:37

    Форсаж: Хоббс и Шоу / Fast & Furious Presents: Hobbs & Shaw -Год выпуска: 2019
    Страна: США
    Жанр: Боевик, приключения
    Продолжительность: 02:10:11
    Перевод: Дублированный [Чистый звук]-Режиссер: Дэвид Литч / David Litch-В ролях: Дуэйн Джонсон, Джейсон Стэйтем, Идрис Эльба, Ванесса Кирби, Хелен Миррен, Эйса Гонсалес, Эдди Марсан, Элиана Суа, Клифф Кёртис, Лори Пелениз Туисано-Описание: Люк Хоббс - американский элитный спецагент, он любит удобную спортивную одежду, большие пикапы и здоровое питание. Декард Шоу - британский пижон, бывший сотрудник разведки, предпочитает дорогие костюмы, спортивные авто и длинноногих красоток. Эти двое ненавидят друг друга. Но если кто-то угрожает их семьям, они готовы пойти на все. Даже на работу в команде.- -Качество: HDTV 1080p [Реклама]
    Формат: MKV
    Видео: AVC, 6252 kb/s, 1920x800
    Аудио: AC3, 384 kb/s, 2 ch-

    MediaInfo

    General
    Unique ID : 224838798612425245142284245782917287816 (0xA92660A33C38BE3BB4F81717E9480F88)
    Complete name : Fast.and.Furious.Presents.Hobbs.and.Shaw.2019.D.HDTV.1O8Op.UZTOR.PW.mkv
    Format : Matroska
    Format version : Version 2
    File size : 6.03 GiB
    Duration : 2 h 10 min
    Overall bit rate mode : Variable
    Overall bit rate : 6 636 kb/s
    Encoded date : UTC 2019-09-19 07:37:12
    Writing application : mkvmerge v8.3.0 ('Over the Horizon') 64bit
    Writing library : libebml v1.3.1 + libmatroska v1.4.2
    Video
    ID : 1
    Format : AVC
    Format/Info : Advanced Video Codec
    Format profile : High@L4.1
    Format settings : CABAC / 4 Ref Frames
    Format settings, CABAC : Yes
    Format settings, Reference frames : 4 frames
    Codec ID : V_MPEG4/ISO/AVC
    Duration : 2 h 10 min
    Bit rate mode : Variable
    Bit rate : 6 252 kb/s
    Nominal bit rate : 7 000 kb/s
    Maximum bit rate : 7 000 kb/s
    Width : 1 920 pixels
    Height : 800 pixels
    Display aspect ratio : 2.40:1
    Frame rate mode : Constant
    Frame rate : 23.976 (24000/1001) FPS
    Standard : Component
    Color space : YUV
    Chroma subsampling : 4:2:0
    Bit depth : 8 bits
    Scan type : Progressive
    Bits/(Pixel*Frame) : 0.170
    Stream size : 5.69 GiB (94%)
    Writing library : x264 core 155
    Encoding settings : cabac=1 / ref=4 / deblock=1:0:0 / analyse=0x3:0x3 / me=dia / subme=1 / psy=1 / psy_rd=1.00:0.00 / mixed_ref=0 / me_range=16 / chroma_me=1 / trellis=0 / 8x8dct=1 / cqm=1 / deadzone=21,11 / fast_pskip=1 / chroma_qp_offset=0 / threads=24 / lookahead_threads=4 / sliced_threads=0 / slices=1 / nr=0 / decimate=1 / interlaced=0 / minigop=0 / stitchable=1 / constrained_intra=0 / bframes=2 / b_pyramid=0 / b_adapt=0 / b_bias=0 / direct=1 / weightb=1 / open_gop=1 / weightp=0 / keyint=240 / keyint_min=23 / scenecut=40 / intra_refresh=0 / rc_lookahead=0 / rc=cbr / mbtree=0 / bitrate=7000 / ratetol=1.0 / qcomp=0.60 / qpmin=1 / qpmax=69 / qpstep=4 / vbv_maxrate=7000 / vbv_bufsize=7000 / nal_hrd=vbr / filler=0 / ip_ratio=1.40 / pb_ratio=1.30 / aq=1:1.00
    Default : Yes
    Forced : No
    Color range : Limited
    Color primaries : BT.709
    Transfer characteristics : BT.709
    Matrix coefficients : BT.709
    Audio
    ID : 2
    Format : AAC Main
    Format/Info : Advanced Audio Codec
    Codec ID : A_AAC-1
    Duration : 2 h 10 min
    Bit rate : 384 kb/s
    Channel(s) : 2 channels
    Channel layout : L R
    Sampling rate : 48.0 kHz
    Frame rate : 46.875 FPS (1024 SPF)
    Compression mode : Lossy
    Stream size : 355 MiB (6%)
    Default : Yes
    Forced : No

    _________________
    • NuRKHoNoFF ®
    • Не в сети
    • 5064
    • Пол: Мужской

    • Стаж: 10 месяцев 27 дней

    • Сообщений: 843

    • Откуда: Каттакурган

    • Провайдер: TPS TPS

    • Карма: 575


    • Наличие запрета:

    • Награды: 17 (Подробнее)
      Активный релизер 1 (Количество: 1) Активный релизер 2 (Количество: 1) Активный релизер 3 (Количество: 1) Активный релизер 4 (Количество: 1) Активный релизер 5 (Количество: 1)
  • Создавать темы 19-Сен-2019 17:42 (спустя 5 минут)

    Спасибо огромные normaluser за этот раздачу для помощи загрузки!

    _________________
    Показать сообщения:    
    Главная  Кинофильмы  Зарубежные кинофильмы  HD

    Текущее время: 15-Ноя 00:19

    Часовой пояс: UTC + 5



    Вы не можете начинать темы
    Вы не можете отвечать на сообщения
    Вы не можете редактировать свои сообщения
    Вы не можете удалять свои сообщения
    Вы не можете голосовать в опросах
    Вы не можете прикреплять файлы к сообщениям
    Вы не можете скачивать файлы