Вселенная Стивена / Steven Universe: The Movie (Ребекка Шуга / Rebecca Suga) [2019, Мультфильм, мюзикл, фантастика, фэнтези, приключения, семейный, полнометражный, WEBRip 1080p] :: UZTOR.PW Лучший трекер в зоне TAS-IX!
Регистрация ·
Имя: Пароль:  
· Забыли пароль?
Уважаемые гости сайта! Добро Пожаловать на наш торрент трекер,где Вы можете бесплатно скачать любой Софт,Фильмы,Музыку и многое другое! А так же постоянно ведется набор модераторов и релизеров. Зарегистрируйтесь сейчас, чтобы получить доступ ко всем функциям. После регистрации или входа на сайт вы сможете создавать темы, отвечать на сообщения и скачивать файлы.

Навигация по Торрент раздачам и Форум

До нового обновления Торрент-Трекер осталось

 Вселенная Стивена / Steven Universe: The Movie (Ребекка Шуга / Rebecca Suga) [2019, Мультфильм, мюзикл, фантастика, фэнтези, приключения, семейный, полнометражный, WEBRip 1080p]

Главная  Мультфильмы  Зарубежные мультфильмы  HD
Статистика раздачи
Нет
 
     
 
 
Автор Сообщение
  • NuRKHoNoFF ®
  • Не в сети
  • 5064
  • Пол: Мужской

  • Стаж: 11 месяцев 2 дня

  • Сообщений: 856

  • Откуда: Каттакурган

  • Провайдер: TPS TPS

  • Карма: 575


  • Наличие запрета:

  • Награды: 17 (Подробнее)
    Активный релизер 1 (Количество: 1) Активный релизер 2 (Количество: 1) Активный релизер 3 (Количество: 1) Активный релизер 4 (Количество: 1) Активный релизер 5 (Количество: 1)
  • Создавать темы 17-Сен-2019 01:07

    Вселенная Стивена / Steven Universe: The Movie -Год выпуска: 2019
    Страна: США
    Жанр: Мультфильм, мюзикл, фантастика, фэнтези, приключения, семейный, полнометражный
    Продолжительность: 01:22:00
    Перевод: Любительский (многоголосый, закадровый) [NewStation]-Режиссер: Ребекка Шуга / Rebecca Suga-В ролях: Зак Каллисон, Эстелль, Михаэлла Дитц, Диди Мано, Том Шарплинг, Грэйс Ролек, Мэттью Мой, Кейт Микуччи, Шелби Рабара, Дженнифер Пас-Описание: Сюжет мультфильма представляет занимательный рассказ о мальчике по имени Стивен. У него есть небольшие проблемы с лишним весом, но это не становится помехой для спасения планеты Земля от различных угроз. Этот парень никогда не унывает, верит в свои силы и всегда добивается успеха. На самом деле ещё несколько лет назад он и не представлял, что сможет предстать в образе настоящего воина, входящего в интергалактическую армию. Он был, как и другие ребята, обычным мальчишкой. Однажды Стивен узнал, что обладает сверхъестественными силами. и вскоре Стивен оказался лицом к лицу со злом. Стало известно, что на территории Пляжного города была обнаружена и ему предстоит преодолеть самое сложное испытание.- -Качество: WEBRip 1080p
    Формат: MKV
    Видео: MPEG-4 AVC, 2555 Кбит/с, 1920x1080
    Аудио №1: AC3, 6ch, 640 Кбит/сек | RUS
    Аудио №2: AC3, 6ch, 640 Кбит/сек | ENG-

    MediaInfo

    General
    Unique ID : 54539514805020559106893215265823191202 (0x2907EDB04F79D3EBBD729DDA4E20F0A2)
    Complete name : Steven.Universe.The.Movie.2019.1080p.WEB-DL.NewStation.mkv
    Format : Matroska
    Format version : Version 4
    File size : 2.22 GiB
    Duration : 1 h 22 min
    Overall bit rate : 3 837 kb/s
    Encoded date : UTC 2019-09-13 18:29:59
    Writing application : mkvmerge v28.1.0 ('Morning Child') 64-bit
    Writing library : libebml v1.3.6 + libmatroska v1.4.9
    Video
    ID : 1
    Format : AVC
    Format/Info : Advanced Video Codec
    Format profile : High@L4
    Format settings : CABAC / 4 Ref Frames
    Format settings, CABAC : Yes
    Format settings, Reference : 4 frames
    Codec ID : V_MPEG4/ISO/AVC
    Duration : 1 h 22 min
    Bit rate : 2 481 kb/s
    Width : 1 920 pixels
    Height : 1 080 pixels
    Display aspect ratio : 16:9
    Frame rate mode : Constant
    Frame rate : 23.976 (24000/1001) FPS
    Color space : YUV
    Chroma subsampling : 4:2:0
    Bit depth : 8 bits
    Scan type : Progressive
    Bits/(Pixel*Frame) : 0.050
    Stream size : 1.43 GiB (65%)
    Default : Yes
    Forced : No
    Color range : Limited
    Color primaries : BT.709
    Transfer characteristics : BT.709
    Matrix coefficients : BT.709
    Audio #1
    ID : 2
    Format : AC-3
    Format/Info : Audio Coding 3
    Commercial name : Dolby Digital
    Codec ID : A_AC3
    Duration : 1 h 22 min
    Bit rate mode : Constant
    Bit rate : 640 kb/s
    Channel(s) : 6 channels
    Channel layout : L R C LFE Ls Rs
    Sampling rate : 48.0 kHz
    Frame rate : 31.250 FPS (1536 SPF)
    Bit depth : 16 bits
    Compression mode : Lossy
    Stream size : 379 MiB (17%)
    Title : NewStation
    Language : Russian
    Service kind : Complete Main
    Default : Yes
    Forced : No
    Audio #2
    ID : 3
    Format : AC-3
    Format/Info : Audio Coding 3
    Commercial name : Dolby Digital
    Codec ID : A_AC3
    Duration : 1 h 22 min
    Bit rate mode : Constant
    Bit rate : 640 kb/s
    Channel(s) : 6 channels
    Channel layout : L R C LFE Ls Rs
    Sampling rate : 48.0 kHz
    Frame rate : 31.250 FPS (1536 SPF)
    Bit depth : 16 bits
    Compression mode : Lossy
    Stream size : 379 MiB (17%)
    Title : Original
    Language : English
    Service kind : Complete Main
    Default : No
    Forced : No
    Text #1
    ID : 4
    Format : ASS
    Codec ID : S_TEXT/ASS
    Codec ID/Info : Advanced Sub Station Alpha
    Compression mode : Lossless
    Title : Т. О. SUBOne (Песни)
    Language : Russian
    Default : No
    Forced : No
    Text #2
    ID : 5
    Format : ASS
    Codec ID : S_TEXT/ASS
    Codec ID/Info : Advanced Sub Station Alpha
    Compression mode : Lossless
    Title : Т. О. SUBOne (Полные)
    Language : Russian
    Default : No
    Forced : No
    Text #3
    ID : 6
    Format : UTF-8
    Codec ID : S_TEXT/UTF8
    Codec ID/Info : UTF-8 Plain Text
    Title : English
    Language : English
    Default : No
    Forced : No
    Text #4
    ID : 7
    Format : UTF-8
    Codec ID : S_TEXT/UTF8
    Codec ID/Info : UTF-8 Plain Text
    Title : English [SDH]
    Language : English
    Default : No
    Forced : No


    _________________
    Показать сообщения:    
    Главная  Мультфильмы  Зарубежные мультфильмы  HD

    Текущее время: 20-Ноя 11:48

    Часовой пояс: UTC + 5



    Вы не можете начинать темы
    Вы не можете отвечать на сообщения
    Вы не можете редактировать свои сообщения
    Вы не можете удалять свои сообщения
    Вы не можете голосовать в опросах
    Вы не можете прикреплять файлы к сообщениям
    Вы не можете скачивать файлы