Lego Marvel Человек-Паук: Как дразнить Венома / Lego Marvel Spider-Man: Vexed by Venom [2019, Мультфильм, WEBRip 720p, Р] :: UZTOR.PW Лучший трекер в зоне TAS-IX!
Регистрация ·
Имя: Пароль:  
· Забыли пароль?
Уважаемые гости сайта! Добро Пожаловать на наш торрент трекер,где Вы можете бесплатно скачать любой Софт,Фильмы,Музыку и многое другое! А так же постоянно ведется набор модераторов и релизеров. Зарегистрируйтесь сейчас, чтобы получить доступ ко всем функциям. После регистрации или входа на сайт вы сможете создавать темы, отвечать на сообщения и скачивать файлы.

Навигация по Торрент раздачам и Форум

До нового обновления Торрент-Трекер осталось

 Lego Marvel Человек-Паук: Как дразнить Венома / Lego Marvel Spider-Man: Vexed by Venom [2019, Мультфильм, WEBRip 720p, Р]

Главная  Мультфильмы  Зарубежные мультфильмы  Новинки (С рекламой)
Статистика раздачи
Скачал: [ 2 ]
 
     
 
 
Автор Сообщение
  • NuRKHoNoFF ®
  • Не в сети
  • 5064
  • Пол: Мужской

  • Стаж: 10 месяцев 25 дней

  • Сообщений: 832

  • Откуда: Каттакурган

  • Провайдер: TPS TPS

  • Карма: 575


  • Наличие запрета:

  • Награды: 17 (Подробнее)
    Активный релизер 1 (Количество: 1) Активный релизер 2 (Количество: 1) Активный релизер 3 (Количество: 1) Активный релизер 4 (Количество: 1) Активный релизер 5 (Количество: 1)
  • Создавать темы 06-Сен-2019 22:46

    Lego Marvel Человек-Паук: Как дразнить Венома / Lego Marvel Spider-Man: Vexed by Venom -Год выпуска: 2019
    Страна: США
    Жанр: Мультфильм
    Продолжительность: 00:23:51
    Перевод: Профессиональный (многоголосый) ["Синема УС"]-Режиссер:-В ролях: Робби Деймонд, Лора Бейли, Дженнифер Хейл-Описание: Зелёный Гоблин и Веном объединяются, чтобы устроить техногенную катастрофу в Нью-Йорке. Успеют ли Человек-паук и его новая напарница остановить злодеев до того, как город будет разрушен?--Качество: WEBRip 720p [Реклама]
    Формат: MKV
    Видео: AVC, 5262 kb/s, 1280x630
    Аудио: AC3, 2 CH, 384 kb/s-

    MediaInfo

    General
    Unique ID : 243685211926049352685569112844741482804 (0xB754108DE73FDE52A6CB77B6B7819934)
    Complete name : Lego.Marvel.Spider-Man.Vexed.By.Venom.2019.P.WEBRip.72Op.mkv
    Format : Matroska
    Format version : Version 2
    File size : 963 MiB
    Duration : 23 min 51 s
    Overall bit rate mode : Variable
    Overall bit rate : 5 646 kb/s
    Encoded date : UTC 2019-09-06 11:44:20
    Writing application : mkvmerge v8.3.0 ('Over the Horizon') 64bit
    Writing library : libebml v1.3.1 + libmatroska v1.4.2
    Video
    ID : 1
    Format : AVC
    Format/Info : Advanced Video Codec
    Format profile : High@L4.1
    Format settings : CABAC / 4 Ref Frames
    Format settings, CABAC : Yes
    Format settings, ReFrames : 4 frames
    Codec ID : V_MPEG4/ISO/AVC
    Duration : 23 min 51 s
    Bit rate mode : Variable
    Bit rate : 5 262 kb/s
    Nominal bit rate : 6 000 kb/s
    Maximum bit rate : 6 000 kb/s
    Width : 1 280 pixels
    Height : 630 pixels
    Display aspect ratio : 2.032
    Frame rate mode : Constant
    Frame rate : 23.976 (24000/1001) FPS
    Standard : Component
    Color space : YUV
    Chroma subsampling : 4:2:0
    Bit depth : 8 bits
    Scan type : Progressive
    Bits/(Pixel*Frame) : 0.272
    Stream size : 898 MiB (93%)
    Writing library : x264 core 155
    Encoding settings : cabac=1 / ref=4 / deblock=1:0:0 / analyse=0x3:0x3 / me=dia / subme=1 / psy=1 / psy_rd=1.00:0.00 / mixed_ref=0 / me_range=16 / chroma_me=1 / trellis=0 / 8x8dct=1 / cqm=1 / deadzone=21,11 / fast_pskip=1 / chroma_qp_offset=0 / threads=20 / lookahead_threads=3 / sliced_threads=0 / slices=1 / nr=0 / decimate=1 / interlaced=0 / minigop=0 / stitchable=1 / constrained_intra=0 / bframes=2 / b_pyramid=0 / b_adapt=0 / b_bias=0 / direct=1 / weightb=1 / open_gop=1 / weightp=0 / keyint=240 / keyint_min=23 / scenecut=40 / intra_refresh=0 / rc_lookahead=0 / rc=cbr / mbtree=0 / bitrate=6000 / ratetol=1.0 / qcomp=0.60 / qpmin=1 / qpmax=69 / qpstep=4 / vbv_maxrate=6000 / vbv_bufsize=6000 / nal_hrd=vbr / filler=0 / ip_ratio=1.40 / pb_ratio=1.30 / aq=1:1.00
    Default : Yes
    Forced : No
    Color range : Limited
    Color primaries : BT.709
    Transfer characteristics : BT.709
    Matrix coefficients : BT.709
    Audio
    ID : 2
    Format : AAC Main
    Format/Info : Advanced Audio Codec
    Codec ID : A_AAC-1
    Duration : 23 min 51 s
    Bit rate : 384 kb/s
    Channel(s) : 2 channels
    Channel layout : L R
    Sampling rate : 48.0 kHz
    Frame rate : 46.875 FPS (1024 SPF)
    Compression mode : Lossy
    Stream size : 65.1 MiB (7%)
    Default : Yes
    Forced : No


    _________________
    Показать сообщения:    
    Главная  Мультфильмы  Зарубежные мультфильмы  Новинки (С рекламой)

    Текущее время: 13-Ноя 01:43

    Часовой пояс: UTC + 5



    Вы не можете начинать темы
    Вы не можете отвечать на сообщения
    Вы не можете редактировать свои сообщения
    Вы не можете удалять свои сообщения
    Вы не можете голосовать в опросах
    Вы не можете прикреплять файлы к сообщениям
    Вы не можете скачивать файлы