Легенда об Искателе / Legend of the Seeker / Сезон 1 / Серии 1-22 из 22 (Марк Бисли, Гарт Максвелл, Майкл Херст) [2008-2010 г., Фэнтези, боевик, драма, комедия, приключения, HDRip] MVO (Generalfilm) :: UZTOR.PW Лучший трекер в зоне TAS-IX!
Регистрация ·
Имя: Пароль:  
· Забыли пароль?

Навигация по Торрент раздачам и Форум

 Легенда об Искателе / Legend of the Seeker / Сезон 1 / Серии 1-22 из 22 (Марк Бисли, Гарт Максвелл, Майкл Херст) [2008-2010 г., Фэнтези, боевик, драма, комедия, приключения, HDRip] MVO (Generalfilm)

Главная  Сериалы  Американские и Европейские сериалы
Статистика раздачи
Нет
 
     
 
 
Автор Сообщение
  • NuRKHoNoFF ®
  • Не в сети
  • 5064
  • Пол: Мужской

  • Стаж: 10 месяцев 1 день

  • Сообщений: 730

  • Откуда: Каттакурган

  • Провайдер: TPS TPS

  • Карма: 574


  • Наличие запрета:

  • Награды: 17 (Подробнее)
    Активный релизер 1 (Количество: 1) Активный релизер 2 (Количество: 1) Активный релизер 3 (Количество: 1) Активный релизер 4 (Количество: 1) Активный релизер 5 (Количество: 1)
  • Создавать темы 26-Дек-2018 22:59

    Легенда об Искателе / Legend of the Seeker- Год выпуска: 2008-2010
    Страна: США
    Жанр: Фэнтези, боевик, драма, комедия, приключения
    Продолжительность: ~00:43:00 серия
    Перевод: Дублированный [Студия «Пифагор»] | (Generalfilm)-Режиссер: Марк Бисли, Гарт Максвелл, Майкл Херст-В ролях: Крэйг Хорнер, Бриджет Риган, Брюс Спенс, Крэйг Паркер, Табретт Бетелл, Тед Рейми, Кевин Дж. Уилсон, Лаура Гордон, Эндрю Робертт, Джеффри Томас, Бенсон Джек Энтони, Девид де Латур, Рэйчел Нэш, Лесли-Энн Брандт, Ренато Бартоломеи, Таня Нолан, Дилан Холмс, Бен Френшам, Анна Хатчинсон, Келсон Хендерсон, Хори Ахипене, Джейми Пасье-Армстронг, Уильям Джонсон, Джастин Керри, Питер Диллон, Вики Хофтон, Дженнифер Ракер, Мэйси МакЛеод-Риера, Катрин Стивен, Кэтерин Кеннард, Марек Сумич, Крэйг Уолш Райтсон, Брюс Филлипс-Описание: Сериал «Легенда об Искателе» ("Legend of the Seeker") снят по мотивам первого романа Терри Гудкайнда из цикла «Меч истины» («Sword of Truth») - «Первое правило волшебника» (Wizard's First Rule).
    Эта книга была издана в 1994 году, с тех пор романы Терри Гудкайнда были переведены на 20 языков мира. Сэм Рейми выступит в роли исполнительного продюсера картины, а не режиссера. Сэм Рейми называет Терри Гудкайнда блестящим автором и называет себя фанатом его романов, которые он читал, по его словам, «всей семьей». «Ещё вчера юный Ричард Сайфер был всего лишь лесным проводником, а нынче ему выпал на долю тяжкий жребий Искателя Истины. Тяжкий, ибо магия не приносит радости, а за истину, как и за могущество, расплачиваются дорогой ценой. Тяжкий — ибо Искателю Истины надлежит вступить с величайшим из черных магов трех королевств, безжалостным Даркеном Ралом, повелителем Д'Хары, в смертельную схватку...»
    Первое Правило Волшебника гласит: «Люди глупы. Люди глупы, и, если правдоподобно объяснить, почти все поверят во что угодно. Люди глупы и могут поверить лжи, оттого, что хотят верить, будто это правда, или от того, что боятся знать правду. Головы людей полны всякими знаниями и верованиями, большинство из которых ложны, но всё же люди в это верят. Люди глупы: они редко могут отличить правду от лжи, но не сомневаются, что способны на это. Тем легче их одурачить».
    - -Качество: HDRip
    Формат: MP4
    Видео кодек: AVC
    Аудио кодек: AAC
    Видео: AVC, 640x360, 23.976 fps, 500 kb/s
    Аудио: AAC-LC, 48.0 KHz, 2 ch, 128 Kbps-

    MediaInfo

    General
    Complete name : C:\Фильмы 2017\Legenda.Ob.Iskatele.AVC.HDRip.KPK.Generalfilm\Legenda.Ob.Iskatele.Sezon1.2008.AVC.HDRip.KPK.Generalfilm\Legenda.Ob.Iskatele.s01e01-02.2008.AVC.HDRip.KPK.Generalfilm.mp4
    Format : MPEG-4
    Format profile : Base Media
    Codec ID : isom (isom/avc1)
    File size : 400 MiB
    Duration : 1 h 28 min
    Overall bit rate mode : Variable
    Overall bit rate : 630 kb/s
    Encoded date : UTC 2013-06-24 16:10:34
    Tagged date : UTC 2013-06-24 16:10:34
    Video
    ID : 1
    Format : AVC
    Format/Info : Advanced Video Codec
    Format profile : Baseline@L4.1
    Format settings : 6 Ref Frames
    Format settings, CABAC : No
    Format settings, ReFrames : 6 frames
    Codec ID : avc1
    Codec ID/Info : Advanced Video Coding
    Duration : 1 h 28 min
    Bit rate : 500 kb/s
    Maximum bit rate : 2 888 kb/s
    Width : 640 pixels
    Height : 360 pixels
    Display aspect ratio : 16:9
    Frame rate mode : Constant
    Frame rate : 23.976 (24000/1001) FPS
    Color space : YUV
    Chroma subsampling : 4:2:0
    Bit depth : 8 bits
    Scan type : Progressive
    Bits/(Pixel*Frame) : 0.091
    Stream size : 317 MiB (79%)
    Writing library : x264 core 116 r2074 2641b9e
    Encoding settings : cabac=0 / ref=6 / deblock=1:-1:-1 / analyse=0x1:0x111 / me=umh / subme=7 / psy=1 / psy_rd=1.00:0.00 / mixed_ref=0 / me_range=16 / chroma_me=1 / trellis=1 / 8x8dct=0 / cqm=0 / deadzone=21,11 / fast_pskip=0 / chroma_qp_offset=-2 / threads=3 / sliced_threads=0 / nr=0 / decimate=1 / interlaced=0 / bluray_compat=0 / constrained_intra=0 / bframes=0 / weightp=0 / keyint=250 / keyint_min=23 / scenecut=40 / intra_refresh=0 / rc_lookahead=60 / rc=2pass / mbtree=1 / bitrate=500 / ratetol=1.0 / qcomp=0.60 / qpmin=0 / qpmax=69 / qpstep=4 / cplxblur=20.0 / qblur=0.5 / ip_ratio=1.40 / aq=1:1.00
    Encoded date : UTC 2013-06-24 16:10:34
    Tagged date : UTC 2013-06-24 16:10:54
    Audio
    ID : 2
    Format : AAC
    Format/Info : Advanced Audio Codec
    Format profile : LC
    Codec ID : mp4a-40-2
    Duration : 1 h 28 min
    Bit rate mode : Variable
    Bit rate : 128 kb/s
    Maximum bit rate : 150 kb/s
    Channel(s) : 2 channels
    Channel positions : Front: L R
    Sampling rate : 48.0 kHz
    Frame rate : 46.875 FPS (1024 SPF)
    Compression mode : Lossy
    Stream size : 81.2 MiB (20%)
    Encoded date : UTC 2013-06-24 16:10:47
    Tagged date : UTC 2013-06-24 16:10:54


    _________________


    Последний раз редактировалось: NuRKHoNoFF (2019-09-30 21:41), всего редактировалось 3 раз(а)
    • NuRKHoNoFF ®
    • Не в сети
    • 5064
    • Пол: Мужской

    • Стаж: 10 месяцев 1 день

    • Сообщений: 730

    • Откуда: Каттакурган

    • Провайдер: TPS TPS

    • Карма: 574


    • Наличие запрета:

    • Награды: 17 (Подробнее)
      Активный релизер 1 (Количество: 1) Активный релизер 2 (Количество: 1) Активный релизер 3 (Количество: 1) Активный релизер 4 (Количество: 1) Активный релизер 5 (Количество: 1)
  • Создавать темы 30-Сен-2019 20:48 (спустя 9 месяцев 3 дня)

    Добавлен в полной Сезон 1 Всем Приятного Просмотра! Скоро будет Сезон 2

    _________________
    Показать сообщения:    
    Главная  Сериалы  Американские и Европейские сериалы

    Текущее время: 19-Окт 18:51

    Часовой пояс: UTC + 5



    Вы не можете начинать темы
    Вы не можете отвечать на сообщения
    Вы не можете редактировать свои сообщения
    Вы не можете удалять свои сообщения
    Вы не можете голосовать в опросах
    Вы не можете прикреплять файлы к сообщениям
    Вы не можете скачивать файлы