Неугомонная Элла / Helicopter Eela (Прадип Саркар / Pradeep Sarkar) [2018, Комедия, мелодрама, WEB-DL 1080p] :: UZTOR.PW Лучший трекер в зоне TAS-IX!
Регистрация ·
Имя: Пароль:  
· Забыли пароль?
Уважаемые гости сайта! Добро Пожаловать на наш торрент трекер,где Вы можете бесплатно скачать любой Софт,Фильмы,Музыку и многое другое! А так же постоянно ведется набор модераторов и релизеров. Зарегистрируйтесь сейчас, чтобы получить доступ ко всем функциям. После регистрации или входа на сайт вы сможете создавать темы, отвечать на сообщения и скачивать файлы.

Навигация по Торрент раздачам и Форум

До нового обновления Торрент-Трекер осталось

 Неугомонная Элла / Helicopter Eela (Прадип Саркар / Pradeep Sarkar) [2018, Комедия, мелодрама, WEB-DL 1080p]

Главная  Кинофильмы  Индийские кинофильмы
Статистика раздачи
Нет
 
     
 
 
Автор Сообщение
  • NuRKHoNoFF ®
  • Не в сети
  • 5064
  • Пол: Мужской

  • Стаж: 10 месяцев 25 дней

  • Сообщений: 832

  • Откуда: Каттакурган

  • Провайдер: TPS TPS

  • Карма: 575


  • Наличие запрета:

  • Награды: 17 (Подробнее)
    Активный релизер 1 (Количество: 1) Активный релизер 2 (Количество: 1) Активный релизер 3 (Количество: 1) Активный релизер 4 (Количество: 1) Активный релизер 5 (Количество: 1)
  • Создавать темы 03-Сен-2019 23:29

    Неугомонная Элла / Helicopter -Год выпуска: 2018
    Страна: Индия
    Жанр: Комедия, мелодрама
    Продолжительность: 02:02:37
    Перевод: Любительский (многоголосый, закадровый) [Studio Films]-Субтитры: Русские (на песни)-Режиссер: Прадип Саркар / Pradeep Sarkar-В ролях: Каджол, Риддхи Сен, Тота Рой Чаудхари, Неха Дхупия, Ила Арун, Амитабх Баччан, Сушмита Бхандари, Махеш Бхатт, Алиша Чинай-Описание: Элла — мать-одиночка, однажды отказавшаяся от карьеры певицы ради единственного сына. Теперь её «малыш» Виван повзрослел и стал современным молодым человеком, который не хочет, чтобы жизнь мамы вращалась только вокруг него. Однако у Эллы на этот счёт другое мнение — как ответственная мать она поступает в колледж вместе с сыном, чтобы проводить с ним больше времени.--Качество: WEB-DL 1080p
    Формат: MKV
    Видео: MPEG-4 AVC, 1683 Кбит/с, 1920x1080
    Аудио №1: АС3, 6 ch, 192 Кбит/с | RUS
    Аудио №2: AAC, 2 ch, 61.4 Кбит/с | HINDI-

    MediaInfo

    General
    Unique ID : 231153787217195267323401702625016066922 (0xADE6999D454FCCB495F808A32C78B36A)
    Complete name : Helicopter Eela 2018 WEB-DL 1080p Rus.mkv
    Format : Matroska
    Format version : Version 4
    File size : 1.66 GiB
    Duration : 2 h 2 min
    Overall bit rate mode : Variable
    Overall bit rate : 1 939 kb/s
    Encoded date : UTC 2019-08-21 14:09:28
    Writing application : mkvmerge v36.0.0 ('Is That Jazz?') 64-bit
    Writing library : libebml v1.3.9 + libmatroska v1.5.2
    Video
    ID : 1
    Format : AVC
    Format/Info : Advanced Video Codec
    Format profile : Main@L4
    Format settings : CABAC / 1 Ref Frames
    Format settings, CABAC : Yes
    Format settings, Reference frames : 1 frame
    Codec ID : V_MPEG4/ISO/AVC
    Duration : 2 h 2 min
    Bit rate mode : Variable
    Bit rate : 1 683 kb/s
    Maximum bit rate : 4 500 kb/s
    Width : 1 920 pixels
    Height : 1 080 pixels
    Display aspect ratio : 16:9
    Frame rate mode : Constant
    Frame rate : 25.000 FPS
    Color space : YUV
    Chroma subsampling : 4:2:0
    Bit depth : 8 bits
    Scan type : Progressive
    Bits/(Pixel*Frame) : 0.032
    Stream size : 1.44 GiB (87%)
    Default : Yes
    Forced : No
    Audio #1
    ID : 2
    Format : AC-3
    Format/Info : Audio Coding 3
    Commercial name : Dolby Digital
    Codec ID : A_AC3
    Duration : 2 h 2 min
    Bit rate mode : Constant
    Bit rate : 192 kb/s
    Channel(s) : 2 channels
    Channel layout : L R
    Sampling rate : 48.0 kHz
    Frame rate : 31.250 FPS (1536 SPF)
    Bit depth : 16 bits
    Compression mode : Lossy
    Delay relative to video : -33 ms
    Stream size : 168 MiB (10%)
    Title : Любительский (многоголосый закадровый) - Studio Films
    Language : Russian
    Service kind : Complete Main
    Default : Yes
    Forced : No
    Audio #2
    ID : 3
    Format : AAC LC
    Format/Info : Advanced Audio Codec Low Complexity
    Codec ID : A_AAC-2
    Duration : 2 h 2 min
    Bit rate : 61.4 kb/s
    Channel(s) : 2 channels
    Channel layout : L R
    Sampling rate : 48.0 kHz
    Frame rate : 46.875 FPS (1024 SPF)
    Compression mode : Lossy
    Delay relative to video : -33 ms
    Stream size : 53.8 MiB (3%)
    Language : Hindi
    Default : No
    Forced : No
    Text
    ID : 4
    Format : ASS
    Codec ID : S_TEXT/ASS
    Codec ID/Info : Advanced Sub Station Alpha
    Duration : 1 h 58 min
    Bit rate : 29 b/s
    Count of elements : 339
    Compression mode : Lossless
    Stream size : 25.2 KiB (0%)
    Title : На песни
    Language : Russian
    Default : Yes
    Forced : No


    _________________
    Показать сообщения:    
    Главная  Кинофильмы  Индийские кинофильмы

    Текущее время: 13-Ноя 01:43

    Часовой пояс: UTC + 5



    Вы не можете начинать темы
    Вы не можете отвечать на сообщения
    Вы не можете редактировать свои сообщения
    Вы не можете удалять свои сообщения
    Вы не можете голосовать в опросах
    Вы не можете прикреплять файлы к сообщениям
    Вы не можете скачивать файлы