Люди Икс: Тёмный Феникс / Dark Phoenix (Саймон Кинберг / Simon Kinberg) [2019, Фантастика, боевик, приключения, BDRip-HEVC 1080р] Лицензия :: UZTOR.PW Трекер для всех
Регистрация ·
Имя: Пароль:  
· Забыли пароль?

Навигация по Торрент раздачам и Форум

 Люди Икс: Тёмный Феникс / Dark Phoenix (Саймон Кинберг / Simon Kinberg) [2019, Фантастика, боевик, приключения, BDRip-HEVC 1080р] Лицензия

Главная  Кинофильмы  Кинофильмы (HEVC)  Новинки
Статистика раздачи
Качаю: [ 1 ]
 
     
 
 
Автор Сообщение
  • -InVoKeR- ®
  • Не в сети
  • 5057
  • VIP пользователь

  • Пол: Мужской

  • Стаж: 9 месяцев 28 дней

  • Сообщений: 293

  • Откуда: uztor.pw

  • Провайдер: UzOnline UzOnline

  • Тарифный план: Unlim 4 (Мир: 4 Мбит/с, Tas-ix: 100Мбит/с)

  • Steam: 76561198442747843

  • Telegram: i_Invoker

  • Карма: 1128


  • Наличие запрета:

  • Награды: 22 (Подробнее)
    Admin (Количество: 1) Авторитет (Количество: 1) Активный релизер 1 (Количество: 1) Активный релизер 2 (Количество: 1) Активный сидер 1 (Количество: 1)
  • Создавать темы 02-Сен-2019 00:24

    Люди Икс: Тёмный Феникс / Dark Phoenix«A Phoenix will rise. The X-Men will fall»--
    Год выпуска: 2019
    Страна: США
    Жанр: Фантастика, боевик, приключения
    Продолжительность: 01:53:56
    Перевод: Дублированный [Лицензия]-Режиссер: Саймон Кинберг / Simon Kinberg-В ролях: Джеймс МакЭвой, Майкл Фассбендер, Дженнифер Лоуренс, Николас Холт, Софи Тёрнер, Тай Шеридан, Александра Шипп, Эван Питерс, Коди Смит-МакФи, Джессика Честейн-Описание: История Джин Грей, которая разворачивается в тот момент, когда героиня превращается в культового Тёмного Феникса. Во время опасной для жизни спасательной миссии в космосе девушка оказывается поражена таинственной космической силой, которая превращает её в одного из самых могущественных мутантов. В борьбе с этой всё более изменчивой мощью и со своими собственными демонами Джин выходит из-под контроля: раскалывает семью Людей Икс и угрожает уничтожить всю нашу планету.- -Дополнительная информация
    Сценарий: Саймон Кинберг, Стэн Ли, Джек Кёрби
    Продюсер: Саймон Кинберг, Хатч Паркер, Лорен Шулер Доннер
    Оператор: Мауро Фиоре
    Композитор: Ханс Циммер
    Художник: Клод Паре, Винсент Аирд, Рави Бансал
    Монтаж: Ли Смит-Сборы в России: $7 230 491-Возраст: 16+ (зрителям, достигшим 16 лет)
    Рейтинг MPAA: R (детям до 13 лет просмотр не желателен)-Дата мировой премьеры: 5 июня 2019
    Дата российской премьеры: 6 июня 2019, «Двадцатый Век Фокс СНГ»
    Цифровой релиз: 6 сентября 2019, «Двадцатый Век Фокс СНГ»-Качество: BDRip-HEVC 1080p
    Формат: MKV
    Видео: HEVC, ~6919 Кбит/с, 1920x800
    Аудио: DTS-HD MA, 8 ch, 5074 Кбит/с (Org: ENG)
    Аудио: AC3, 6 ch, 448 Кбит/с (DUB: RUS)
    Субтитры: Русские, английские
    Реклама: Отсутствует, Релиз без Рекламы!--

    Тех. инфо

    General
    Unique ID : 134006855924397205581775083349471051947 (0x64D0C81AB9B834C90F2719B11D9EC0AB)
    Complete name : Dark.Phoenix.2019.BDRip.1080.DTS.HDMA.7.1.HEVC.mkv
    Format : Matroska
    Format version : Version 4
    File size : 9.93 GiB
    Duration : 1 h 53 min
    Overall bit rate mode : Variable
    Overall bit rate : 12.5 Mb/s
    Movie name : Dark Phoenix 2019 from ExKinoRay
    Encoded date : UTC 2019-09-01 16:04:04
    Writing application : mkvmerge v22.0.0 ('At The End Of The World') 32-bit
    Writing library : libebml v1.3.5 + libmatroska v1.4.8
    Video
    ID : 1
    Format : HEVC
    Format/Info : High Efficiency Video Coding
    Format profile : Main 10@L4.1@High
    Codec ID : V_MPEGH/ISO/HEVC
    Duration : 1 h 53 min
    Bit rate : 6 919 kb/s
    Width : 1 920 pixels
    Height : 800 pixels
    Display aspect ratio : 2.40:1
    Frame rate mode : Constant
    Frame rate : 23.976 (24000/1001) FPS
    Color space : YUV
    Chroma subsampling : 4:2:0
    Bit depth : 10 bits
    Bits/(Pixel*Frame) : 0.188
    Stream size : 5.51 GiB (55%)
    Language : English
    Default : Yes
    Forced : No
    Color range : Limited
    Color primaries : BT.709
    Transfer characteristics : BT.709
    Matrix coefficients : BT.709
    Audio #1
    ID : 2
    Format : DTS XLL
    Format/Info : Digital Theater Systems
    Commercial name : DTS-HD Master Audio
    Codec ID : A_DTS
    Duration : 1 h 53 min
    Bit rate mode : Variable
    Bit rate : 5 074 kb/s
    Channel(s) : 8 channels
    Channel layout : C L R LFE Lb Rb Lss Rss
    Sampling rate : 48.0 kHz
    Frame rate : 93.750 FPS (512 SPF)
    Bit depth : 24 bits
    Compression mode : Lossless
    Stream size : 4.04 GiB (41%)
    Language : English
    Default : No
    Forced : No
    Audio #2
    ID : 6
    Format : AC-3
    Format/Info : Audio Coding 3
    Commercial name : Dolby Digital
    Codec ID : A_AC3
    Duration : 1 h 53 min
    Bit rate mode : Constant
    Bit rate : 448 kb/s
    Channel(s) : 6 channels
    Channel layout : L R C LFE Ls Rs
    Sampling rate : 48.0 kHz
    Frame rate : 31.250 FPS (1536 SPF)
    Bit depth : 16 bits
    Compression mode : Lossy
    Stream size : 365 MiB (4%)
    Title : Dub (Blu-Ray)
    Language : Russian
    Service kind : Complete Main
    Default : Yes
    Forced : Yes
    Text #1
    ID : 3
    Format : PGS
    Muxing mode : zlib
    Codec ID : S_HDMV/PGS
    Codec ID/Info : Picture based subtitle format used on BDs/HD-DVDs
    Duration : 1 h 53 min
    Bit rate : 27.8 kb/s
    Count of elements : 2830
    Stream size : 22.6 MiB (0%)
    Language : English
    Default : No
    Forced : No
    Text #2
    ID : 4
    Format : PGS
    Muxing mode : zlib
    Codec ID : S_HDMV/PGS
    Codec ID/Info : Picture based subtitle format used on BDs/HD-DVDs
    Duration : 1 h 53 min
    Bit rate : 75.5 kb/s
    Count of elements : 4364
    Stream size : 61.4 MiB (1%)
    Language : English
    Default : No
    Forced : No
    Text #3
    ID : 5
    Format : UTF-8
    Codec ID : S_TEXT/UTF8
    Codec ID/Info : UTF-8 Plain Text
    Duration : 1 h 52 min
    Bit rate : 63 b/s
    Count of elements : 1137
    Stream size : 52.9 KiB (0%)
    Title : Full (Enigma)
    Language : Russian
    Default : Yes
    Forced : No
    Menu
    00:00:00.000 : en:00:00:00.000
    00:03:28.875 : en:00:03:28.875
    00:07:34.621 : en:00:07:34.621
    00:11:42.201 : en:00:11:42.201
    00:15:44.110 : en:00:15:44.110
    00:18:37.408 : en:00:18:37.408
    00:25:24.481 : en:00:25:24.481
    00:31:40.357 : en:00:31:40.357
    00:34:19.307 : en:00:34:19.307
    00:40:07.447 : en:00:40:07.447
    00:44:36.090 : en:00:44:36.090
    00:49:07.778 : en:00:49:07.778
    00:55:38.168 : en:00:55:38.168
    00:58:57.409 : en:00:58:57.409
    01:02:57.190 : en:01:02:57.190
    01:10:40.111 : en:01:10:40.111
    01:13:42.418 : en:01:13:42.418
    01:19:33.477 : en:01:19:33.477
    01:22:35.701 : en:01:22:35.701
    01:25:49.061 : en:01:25:49.061
    01:30:38.350 : en:01:30:38.350
    01:32:48.188 : en:01:32:48.188
    01:37:59.624 : en:01:37:59.624
    01:45:01.045 : en:01:45:01.045
    Показать сообщения:    
    Главная  Кинофильмы  Кинофильмы (HEVC)  Новинки

    Текущее время: 16-Сен 08:14

    Часовой пояс: UTC + 5



    Вы не можете начинать темы
    Вы не можете отвечать на сообщения
    Вы не можете редактировать свои сообщения
    Вы не можете удалять свои сообщения
    Вы не можете голосовать в опросах
    Вы не можете прикреплять файлы к сообщениям
    Вы не можете скачивать файлы