Люди Икс: Тёмный Феникс / Dark Phoenix (Саймон Кинберг / Simon Kinberg) [2019, Фантастика, боевик, приключения, BDRip-HEVC 1080p] Лицензия :: UZTOR.PW Лучший трекер в зоне TAS-IX!
Регистрация ·
Имя: Пароль:  
· Забыли пароль?
Уважаемые гости сайта! Добро Пожаловать на наш торрент трекер,где Вы можете бесплатно скачать любой Софт,Фильмы,Музыку и многое другое! А так же постоянно ведется набор модераторов и релизеров. Зарегистрируйтесь сейчас, чтобы получить доступ ко всем функциям. После регистрации или входа на сайт вы сможете создавать темы, отвечать на сообщения и скачивать файлы.

Навигация по Торрент раздачам и Форум

До нового обновления Торрент-Трекер осталось

  Люди Икс: Тёмный Феникс / Dark Phoenix (Саймон Кинберг / Simon Kinberg) [2019, Фантастика, боевик, приключения, BDRip-HEVC 1080p] Лицензия

Главная  Кинофильмы  Кинофильмы (HEVC)  Новинки
Статистика раздачи
Скачал: [ 1 ]
 
     
 
 
Автор Сообщение
  • -InVoKeR- ®
  • Не в сети
  • 5057
  • VIP пользователь

  • Пол: Мужской

  • Стаж: 11 месяцев 25 дней

  • Сообщений: 345

  • Откуда: uztor.pw

  • Провайдер: UzOnline UzOnline

  • Тарифный план: Unlim 4 (Мир: 4 Мбит/с, Tas-ix: 100Мбит/с)

  • Steam: 76561198442747843

  • Telegram: i_Invoker

  • Карма: 1128


  • Наличие запрета:

  • Награды: 22 (Подробнее)
    Admin (Количество: 1) Авторитет (Количество: 1) Активный релизер 1 (Количество: 1) Активный релизер 2 (Количество: 1) Активный сидер 1 (Количество: 1)
  • Создавать темы 02-Сен-2019 00:08

    Люди Икс: Тёмный Феникс / Dark Phoenix«A Phoenix will rise. The X-Men will fall»--
    Год выпуска: 2019
    Страна: США
    Жанр: Фантастика, боевик, приключения
    Продолжительность: 01:53:56
    Перевод: Дублированный [Лицензия]-Режиссер: Саймон Кинберг / Simon Kinberg-В ролях: Джеймс МакЭвой, Майкл Фассбендер, Дженнифер Лоуренс, Николас Холт, Софи Тёрнер, Тай Шеридан, Александра Шипп, Эван Питерс, Коди Смит-МакФи, Джессика Честейн-Описание: История Джин Грей, которая разворачивается в тот момент, когда героиня превращается в культового Тёмного Феникса. Во время опасной для жизни спасательной миссии в космосе девушка оказывается поражена таинственной космической силой, которая превращает её в одного из самых могущественных мутантов. В борьбе с этой всё более изменчивой мощью и со своими собственными демонами Джин выходит из-под контроля: раскалывает семью Людей Икс и угрожает уничтожить всю нашу планету.- -Дополнительная информация
    Сценарий: Саймон Кинберг, Стэн Ли, Джек Кёрби
    Продюсер: Саймон Кинберг, Хатч Паркер, Лорен Шулер Доннер
    Оператор: Мауро Фиоре
    Композитор: Ханс Циммер
    Художник: Клод Паре, Винсент Аирд, Рави Бансал
    Монтаж: Ли Смит-Сборы в России: $7 230 491-Возраст: 16+ (зрителям, достигшим 16 лет)
    Рейтинг MPAA: R (детям до 13 лет просмотр не желателен)-Дата мировой премьеры: 5 июня 2019
    Дата российской премьеры: 6 июня 2019, «Двадцатый Век Фокс СНГ»
    Цифровой релиз: 6 сентября 2019, «Двадцатый Век Фокс СНГ»-Качество: BDRip-HEVC 1080p
    Формат: MKV
    Видео: HEVC, 1284 Кбит/с, 1920x808
    Аудио: AC3, 6 ch, 448 Кбит/с (DUB: RUS)
    Субтитры: Русские
    Реклама: Отсутствует, Релиз без Рекламы!--

    Тех. инфо

    General
    Unique ID : 233519817409389763622406058716478337142 (0xAFAE47E8C722336CBE1057501A7C7076)
    Complete name : Dark.Phoenix.2019.1080p.BRRip.hevc.x265.mkv
    Format : Matroska
    Format version : Version 4
    File size : 1.38 GiB
    Duration : 1 h 53 min
    Overall bit rate : 1 734 kb/s
    Movie name : Dark Phoenix - RMTeam, RMZ.cr
    Encoded date : UTC 2019-09-01 16:37:31
    Writing application : mkvmerge v9.7.1 ('Pandemonium') 32bit
    Writing library : libebml v1.3.4 + libmatroska v1.4.5
    Video
    ID : 1
    Format : HEVC
    Format/Info : High Efficiency Video Coding
    Format profile : Main@L4@Main
    Codec ID : V_MPEGH/ISO/HEVC
    Duration : 1 h 53 min
    Bit rate : 1 284 kb/s
    Width : 1 920 pixels
    Height : 808 pixels
    Display aspect ratio : 2.40:1
    Frame rate mode : Variable
    Frame rate : 23.976 FPS
    Color space : YUV
    Chroma subsampling : 4:2:0
    Bit depth : 8 bits
    Bits/(Pixel*Frame) : 0.035
    Stream size : 1.02 GiB (74%)
    Writing library : x265 2.5+9-fdf39a97ecb8:[Linux][GCC 6.4.0][64 bit] 8bit+10bit+12bit
    Encoding settings : cpuid=1173503 / frame-threads=3 / wpp / no-pmode / no-pme / no-psnr / no-ssim / log-level=2 / input-csp=1 / input-res=1920x808 / interlace=0 / total-frames=0 / level-idc=0 / high-tier=1 / uhd-bd=0 / ref=3 / no-allow-non-conformance / no-repeat-headers / annexb / no-aud / no-hrd / info / hash=0 / no-temporal-layers / open-gop / min-keyint=23 / keyint=250 / bframes=4 / b-adapt=2 / b-pyramid / bframe-bias=0 / rc-lookahead=20 / lookahead-slices=5 / scenecut=40 / no-intra-refresh / ctu=64 / min-cu-size=8 / no-rect / no-amp / max-tu-size=32 / tu-inter-depth=1 / tu-intra-depth=1 / limit-tu=0 / rdoq-level=0 / dynamic-rd=0.00 / no-ssim-rd / signhide / no-tskip / nr-intra=0 / nr-inter=0 / no-constrained-intra / strong-intra-smoothing / max-merge=2 / limit-refs=3 / no-limit-modes / me=1 / subme=2 / merange=57 / temporal-mvp / weightp / no-weightb / no-analyze-src-pics / deblock=0:0 / sao / no-sao-non-deblock / rd=3 / no-early-skip / rskip / no-fast-intra / no-tskip-fast / no-cu-lossless / no-b-intra / rdpenalty=0 / psy-rd=2.00 / psy-rdoq=0.00 / no-rd-refine / analysis-reuse-mode=0 / no-lossless / cbqpoffs=0 / crqpoffs=0 / rc=crf / crf=23.5 / qcomp=0.60 / qpstep=4 / stats-write=0 / stats-read=0 / ipratio=1.40 / pbratio=1.30 / aq-mode=1 / aq-strength=1.00 / cutree / zone-count=0 / no-strict-cbr / qg-size=32 / no-rc-grain / qpmax=69 / qpmin=0 / no-const-vbv / sar=1 / overscan=0 / videoformat=5 / range=0 / colorprim=2 / transfer=2 / colormatrix=2 / chromaloc=0 / display-window=0 / max-cll=0,0 / min-luma=0 / max-luma=255 / log2-max-poc-lsb=8 / vui-timing-info / vui-hrd-info / slices=1 / opt-qp-pps / opt-ref-list-length-pps / no-multi-pass-opt-rps / scenecut-bias=0.05 / no-opt-cu-delta-qp / no-aq-motion / no-hdr / no-hdr-opt / no-dhdr10-opt / analysis-reuse-level=5 / scale-factor=0 / refine-intra=0 / refine-inter=0 / refine-mv=0 / no-limit-sao / ctu-info=0
    Default : Yes
    Forced : No
    Audio
    ID : 2
    Format : AC-3
    Format/Info : Audio Coding 3
    Commercial name : Dolby Digital
    Codec ID : A_AC3
    Duration : 1 h 53 min
    Bit rate mode : Constant
    Bit rate : 448 kb/s
    Channel(s) : 6 channels
    Channel layout : L R C LFE Ls Rs
    Sampling rate : 48.0 kHz
    Frame rate : 31.250 FPS (1536 SPF)
    Bit depth : 16 bits
    Compression mode : Lossy
    Stream size : 365 MiB (26%)
    Title : Dub (Blu-Ray)
    Language : Russian
    Service kind : Complete Main
    Default : Yes
    Forced : No
    Text #1
    ID : 3
    Format : UTF-8
    Codec ID : S_TEXT/UTF8
    Codec ID/Info : UTF-8 Plain Text
    Duration : 1 h 52 min
    Bit rate : 1 b/s
    Count of elements : 18
    Stream size : 1.03 KiB (0%)
    Title : Forced (Enigma)
    Language : Russian
    Default : Yes
    Forced : No
    Text #2
    ID : 4
    Format : UTF-8
    Codec ID : S_TEXT/UTF8
    Codec ID/Info : UTF-8 Plain Text
    Duration : 1 h 52 min
    Bit rate : 63 b/s
    Count of elements : 1137
    Stream size : 52.9 KiB (0%)
    Title : Full (Enigma)
    Language : Russian
    Default : No
    Forced : No
    Menu
    00:00:00.000 : en:00:00:00.000
    00:03:28.875 : en:00:03:28.875
    00:07:34.621 : en:00:07:34.621
    00:11:42.201 : en:00:11:42.201
    00:15:44.110 : en:00:15:44.110
    00:18:37.408 : en:00:18:37.408
    00:25:24.481 : en:00:25:24.481
    00:31:40.357 : en:00:31:40.357
    00:34:19.307 : en:00:34:19.307
    00:40:07.447 : en:00:40:07.447
    00:44:36.090 : en:00:44:36.090
    00:49:07.778 : en:00:49:07.778
    00:55:38.168 : en:00:55:38.168
    00:58:57.409 : en:00:58:57.409
    01:02:57.190 : en:01:02:57.190
    01:10:40.111 : en:01:10:40.111
    01:13:42.418 : en:01:13:42.418
    01:19:33.477 : en:01:19:33.477
    01:22:35.701 : en:01:22:35.701
    01:25:49.061 : en:01:25:49.061
    01:30:38.350 : en:01:30:38.350
    01:32:48.188 : en:01:32:48.188
    01:37:59.624 : en:01:37:59.624
    01:45:01.045 : en:01:45:01.045

    _________________
    Показать сообщения:    
    Главная  Кинофильмы  Кинофильмы (HEVC)  Новинки

    Текущее время: 13-Ноя 01:50

    Часовой пояс: UTC + 5



    Вы не можете начинать темы
    Вы не можете отвечать на сообщения
    Вы не можете редактировать свои сообщения
    Вы не можете удалять свои сообщения
    Вы не можете голосовать в опросах
    Вы не можете прикреплять файлы к сообщениям
    Вы не можете скачивать файлы