Звёздные Войны / StarWars [2019] :: UZTOR.PW Лучший трекер в зоне TAS-IX!
 
Уважаемые гости сайта! Добро Пожаловать на наш торрент трекер,где Вы можете бесплатно скачать любой Софт,Фильмы,Музыку и многое другое! А так же постоянно ведется набор модераторов и релизеров. Зарегистрируйтесь сейчас, чтобы получить доступ ко всем функциям. После регистрации или входа на сайт вы сможете создавать темы, отвечать на сообщения и скачивать файлы.

Навигация по Торрент раздачам и Форум и Стол заказов и Группы



 Звёздные Войны / StarWars [2019]

Главная  Технический форум  Архив
 
Автор Сообщение
  • HDBit ®
  • Не в сети
  • Автор темы

  • 5201
  • Пол: Мужской

  • Стаж: 1 год 3 месяца

  • Сообщений: 10

  • Не указан Не указан

  • Провайдер: UzOnline UzOnline

  • Карма: -20


  • Наличие запрета:

  • Награды: Нет
  • Создавать темы 31-Авг-2019 12:07

    Звёздные Войны | StarWars
    Год выпуска: 2019
    Страна: США
    Перевод: Отсутствует
    Описание: Выступительный зал:сериал будет про Обивана Кеноби, год будет примерно в 2020 году
    Видео: MPEG4 Video (H264) 1280x720 29.97fps 331kbps
    Аудио: AAC 44100Hz stereo 128kbps

    MediaInfo

    Duration : 2mn 5s
    Overall bit rate mode : Variable
    Overall bit rate : 463 Kbps
    Encoded date : UTC 2019-08-24 01:41:14
    Tagged date : UTC 2019-08-24 01:41:14
    gsst : 0
    gstd : 125109
    Video
    ID : 1
    Format : AVC
    Format/Info : Advanced Video Codec
    Format profile : Main@L3.1
    Format settings, CABAC : Yes
    Format settings, ReFrames : 3 frames
    Codec ID : avc1
    Codec ID/Info : Advanced Video Coding
    Duration : 2mn 5s
    Bit rate mode : Variable
    Bit rate : 331 Kbps
    Width : 1 280 pixels
    Height : 720 pixels
    Display aspect ratio : 16:9
    Frame rate mode : Constant
    Frame rate : 29.970 fps
    Color space : YUV
    Chroma subsampling : 4:2:0
    Bit depth : 8 bits
    Scan type : Progressive
    Bits/(Pixel*Frame) : 0.012
    Stream size : 4.93 MiB (71%)
    Title : ISO Media file produced by Google Inc. Created on: 08/23/2019.
    Writing library : x264 core 155 r2901 7d0ff22
    Encoded date : UTC 2019-08-24 01:41:14
    Tagged date : UTC 2019-08-24 01:41:14
    Color primaries : BT.709
    Transfer characteristics : BT.709
    Matrix coefficients : BT.709
    Audio
    ID : 2
    Format : AAC
    Format/Info : Advanced Audio Codec
    Format profile : LC
    Codec ID : 40
    Duration : 2mn 5s
    Bit rate mode : Variable
    Bit rate : 128 Kbps
    Channel(s) : 2 channels
    Channel positions : Front: L R
    Sampling rate : 44.1 KHz
    Compression mode : Lossy
    Delay relative to video : 33ms
    Stream size : 1.91 MiB (28%)
    Title : ISO Media file produced by Google Inc. Created on: 08/23/2019.
    Encoded date : UTC 2019-08-24 01:41:14
    Tagged date : UTC 2019-08-24 01:41:14

    Скриншоты

      -746

    • Сообщений: 249

    • Откуда: Космический Станция

    • Откуда: Космический Станция

    • Провайдер: Не указан Не указан

    • Карма: 32700


    • Наличие запрета:

    • Награды: Нет
  • Создавать темы 31-Авг-2019 14:32 (спустя 2 часа 25 минут)

    Топик был перенесен из форума Разное в форум Для пробных раздач
    -InVoKeR-

      -746

    • Сообщений: 249

    • Откуда: Космический Станция

    • Откуда: Космический Станция

    • Провайдер: Не указан Не указан

    • Карма: 32700


    • Наличие запрета:

    • Награды: Нет
  • Создавать темы 22-Янв-2020 23:38 (спустя 4 месяца 22 дня)

    Топик был перенесен из форума Для пробных раздач в форум Архив


    -InVoKeR-
    Показать сообщения:    
    Главная  Технический форум  Архив

    Текущее время: 05-Июн 12:16

    Часовой пояс: UTC + 5



    Вы не можете начинать темы
    Вы не можете отвечать на сообщения
    Вы не можете редактировать свои сообщения
    Вы не можете удалять свои сообщения
    Вы не можете голосовать в опросах
    Вы не можете прикреплять файлы к сообщениям
    Вы не можете скачивать файлы