Принцесса Эмми / Princess Emmy (Пит де Риккер / Pete de Ricker) [2019, Мультфильм, семейный , WEB-DL 1080p] iTunes :: UZTOR.PW Трекер для всех
Регистрация ·
Имя: Пароль:  
· Забыли пароль?

Навигация по Торрент раздачам и Форум

 Принцесса Эмми / Princess Emmy (Пит де Риккер / Pete de Ricker) [2019, Мультфильм, семейный , WEB-DL 1080p] iTunes

Главная  Мультфильмы  Зарубежные мультфильмы  HD
Статистика раздачи
Нет
 
     
 
 
Автор Сообщение
  • NuRKHoNoFF ®
  • Не в сети
  • 5064
  • Пол: Мужской

  • Стаж: 8 месяцев 29 дней

  • Сообщений: 614

  • Откуда: Каттакурган

  • Провайдер: TPS TPS

  • Карма: 557


  • Наличие запрета:

  • Награды: 17 (Подробнее)
    Активный релизер 1 (Количество: 1) Активный релизер 2 (Количество: 1) Активный релизер 3 (Количество: 1) Активный релизер 4 (Количество: 1) Активный релизер 5 (Количество: 1)
  • Создавать темы 26-Авг-2019 20:38

    Принцесса Эмми / Princess Emmy -Год выпуска: 2019
    Страна: Германия, Бельгия, Великобритания
    Жанр: Мультфильм, семейный
    Продолжительность: 01:17:29
    Перевод: Дублированный [iTunes]-Режиссер: Пит де Риккер / Pete de Ricker-В ролях: Келли Кларксон, Ник Джонас, Жанель Моне, Блейк Шелтон, Питбуль, Габриэль Иглесиас, Ванда Сайкс, Ван Лихом, Charli XCX, Биби Рекса-Описание: Принцесса Эмми живёт со своими родителями в великолепном замке. Приветливой, доброй и смелой девочке, посчастливилось обладать весьма необычным даром – она единственная в королевстве Кандис, кто умеет разговаривать с лошадьми. Эмми наслаждается беззаботным детством, но всё меняется после того, как во дворец приезжает её ревнивая и коварная кузина Гизана, которая постоянно пытается соперничать с Эмми и угрожает помешать ей взойти на трон. - -Качество: WEB-DL 1080p
    Формат: MKV
    Видео: MPEG-4 AVC, 1920x1080, 5194 Kbps, 24.000 fps
    Аудио: AC3, 48.0 KHz, 6 ch, 384 kbps | iTunes-

    MediaInfo

    General
    Unique ID : 206084649872280128559940059043892442961 (0x9B0A75B734D8E9CF8CB19054AE763751)
    Complete name : Princess.Emmy.2019.WEB-DL.1080p.mkv
    Format : Matroska
    Format version : Version 4 / Version 2
    File size : 3.02 GiB
    Duration : 1 h 17 min
    Overall bit rate : 5 580 kb/s
    Encoded date : UTC 2019-08-26 15:10:29
    Writing application : mkvmerge v7.8.0 ('River Man') 32bit built on Apr 3 2015 12:11:22
    Writing library : libebml v1.3.1 + libmatroska v1.4.2
    Video
    ID : 1
    Format : AVC
    Format/Info : Advanced Video Codec
    Format profile : High@L4
    Format settings, CABAC : Yes
    Format settings, RefFrames : 4 frames
    Codec ID : V_MPEG4/ISO/AVC
    Duration : 1 h 17 min
    Bit rate : 5 194 kb/s
    Width : 1 920 pixels
    Height : 1 080 pixels
    Display aspect ratio : 16:9
    Frame rate mode : Constant
    Frame rate : 24.000 FPS
    Color space : YUV
    Chroma subsampling : 4:2:0
    Bit depth : 8 bits
    Scan type : Progressive
    Bits/(Pixel*Frame) : 0.104
    Stream size : 2.81 GiB (93%)
    Language : English
    Default : Yes
    Forced : No
    Color range : Limited
    Color primaries : BT.709
    Transfer characteristics : BT.709
    Matrix coefficients : BT.709
    Audio
    ID : 2
    Format : AC-3
    Format/Info : Audio Coding 3
    Format settings, Endianness : Big
    Codec ID : A_AC3
    Duration : 1 h 17 min
    Bit rate mode : Constant
    Bit rate : 384 kb/s
    Channel(s) : 6 channels
    Channel positions : Front: L C R, Side: L R, LFE
    Sampling rate : 48.0 kHz
    Frame rate : 31.250 FPS (1536 SPF)
    Bit depth : 16 bits
    Compression mode : Lossy
    Stream size : 213 MiB (7%)
    Title : iTunes
    Language : Russian
    Service kind : Complete Main
    Default : Yes
    Forced : No
    Menu
    00:00:00.000 : en:Глава 1
    00:06:48.291 : en:Глава 2
    00:14:31.791 : en:Глава 3
    00:20:58.999 : en:Глава 4
    00:28:30.707 : en:Глава 5
    00:36:43.915 : en:Глава 6
    00:45:32.081 : en:Глава 7
    00:52:35.747 : en:Глава 8
    01:00:00.372 : en:Глава 9
    01:08:27.288 : en:Глава 10


    _________________
    Показать сообщения:    
    Главная  Мультфильмы  Зарубежные мультфильмы  HD

    Текущее время: 16-Сен 08:18

    Часовой пояс: UTC + 5



    Вы не можете начинать темы
    Вы не можете отвечать на сообщения
    Вы не можете редактировать свои сообщения
    Вы не можете удалять свои сообщения
    Вы не можете голосовать в опросах
    Вы не можете прикреплять файлы к сообщениям
    Вы не можете скачивать файлы