До скорой встречи / See You Soon (Дэвид Махмуди / David Mahmudi) [2019, Драма, мелодрама, WEB-DL 1080p] iTunes :: UZTOR.PW Трекер для всех
Регистрация ·
Имя: Пароль:  
· Забыли пароль?

Навигация по Торрент раздачам и Форум

 До скорой встречи / See You Soon (Дэвид Махмуди / David Mahmudi) [2019, Драма, мелодрама, WEB-DL 1080p] iTunes

Главная  Кинофильмы  Зарубежные кинофильмы  HD
Статистика раздачи
Нет
 
     
 
 
Автор Сообщение
  • NuRKHoNoFF ®
  • Не в сети
  • 5064
  • Пол: Мужской

  • Стаж: 8 месяцев 29 дней

  • Сообщений: 614

  • Откуда: Каттакурган

  • Провайдер: TPS TPS

  • Карма: 557


  • Наличие запрета:

  • Награды: 17 (Подробнее)
    Активный релизер 1 (Количество: 1) Активный релизер 2 (Количество: 1) Активный релизер 3 (Количество: 1) Активный релизер 4 (Количество: 1) Активный релизер 5 (Количество: 1)
  • Создавать темы 22-Авг-2019 08:42

    До скорой встречи / See You Soon -Год выпуска: 2019
    Страна: США
    Жанр: Драма, мелодрама
    Продолжительность: 01:47:29
    Перевод: Дублированный [iTunes]-Субтитры: Английские (Full, хардсаб на русскую речь)-Режиссер: Дэвид Махмуди / David Mahmudi-В ролях: Евгения Танаева, Лиам Макинтайр, Петр Терещенко, Поппи Дрейтон, Харви Кейтель, Лариса Малеванная, Олег Тактаров, Джордж Лако, Карла Абруццо, Джордж-Энтони Анисимов-Описание: В преддверии Чемпионата мира по футболу 2018 года, американский игрок-суперзвезда получает серьезную травму, которая ставит под угрозу его дальнейшую карьеру. В поисках себя он отправляется в путешествие и встречает свою любовь. Невероятное чувство к девушке из Санкт-Петербурга меняет не только его жизнь, но и его самого.- -Качество: WEB-DL 1080p
    Формат: MKV
    Видео: MPEG-4 AVC, 1920x788, 4460 Kbps, 23.976 fps
    Аудио №1: Russian: AC3, 48.0 KHz, 6 ch, 384 kbps - iTunes
    Аудио №2: English: AC3, 48.0 KHz, 6 ch, 384 kbps - Original-

    MediaInfo

    General
    Unique ID : 243472386712900840643309213392835294304 (0xB72B13760EFCF41DADFB5114F8E9B460)
    Complete name : See.You.Soon.2019.WEB-DL.1080p.mkv
    Format : Matroska
    Format version : Version 2
    File size : 4.01 GiB
    Duration : 1 h 47 min
    Overall bit rate : 5 334 kb/s
    Encoded date : UTC 2019-08-21 23:07:00
    Writing application : mkvmerge v5.8.0 ('No Sleep / Pillow') built on Sep 2 2012 15:37:04
    Writing library : libebml v1.2.3 + libmatroska v1.3.0
    Video
    ID : 1
    Format : AVC
    Format/Info : Advanced Video Codec
    Format profile : High@L4
    Format settings, CABAC : Yes
    Format settings, RefFrames : 5 frames
    Codec ID : V_MPEG4/ISO/AVC
    Duration : 1 h 47 min
    Bit rate : 4 460 kb/s
    Width : 1 920 pixels
    Height : 788 pixels
    Display aspect ratio : 2.40:1
    Frame rate mode : Constant
    Frame rate : 23.976 (24000/1001) FPS
    Color space : YUV
    Chroma subsampling : 4:2:0
    Bit depth : 8 bits
    Scan type : Progressive
    Bits/(Pixel*Frame) : 0.123
    Stream size : 3.35 GiB (84%)
    Language : English
    Default : Yes
    Forced : No
    Color range : Limited
    Color primaries : BT.709
    Transfer characteristics : BT.709
    Matrix coefficients : BT.709
    Audio #1
    ID : 2
    Format : AC-3
    Format/Info : Audio Coding 3
    Format settings, Endianness : Big
    Codec ID : A_AC3
    Duration : 1 h 47 min
    Bit rate mode : Constant
    Bit rate : 384 kb/s
    Channel(s) : 6 channels
    Channel positions : Front: L C R, Side: L R, LFE
    Sampling rate : 48.0 kHz
    Frame rate : 31.250 FPS (1536 SPF)
    Bit depth : 16 bits
    Compression mode : Lossy
    Stream size : 295 MiB (7%)
    Title : iTunes
    Language : Russian
    Service kind : Complete Main
    Default : Yes
    Forced : No
    Audio #2
    ID : 3
    Format : AC-3
    Format/Info : Audio Coding 3
    Format settings, Endianness : Big
    Codec ID : A_AC3
    Duration : 1 h 47 min
    Bit rate mode : Constant
    Bit rate : 384 kb/s
    Channel(s) : 6 channels
    Channel positions : Front: L C R, Side: L R, LFE
    Sampling rate : 48.0 kHz
    Frame rate : 31.250 FPS (1536 SPF)
    Bit depth : 16 bits
    Compression mode : Lossy
    Stream size : 295 MiB (7%)
    Title : Original
    Language : English
    Service kind : Complete Main
    Default : No
    Forced : No
    Text
    ID : 4
    Format : UTF-8
    Codec ID : S_TEXT/UTF8
    Codec ID/Info : UTF-8 Plain Text
    Title : Full
    Language : English
    Default : No
    Forced : No
    Menu
    00:00:00.000 : en:1
    00:09:22.000 : en:2
    00:14:11.000 : en:3
    00:18:13.000 : en:4
    00:24:57.000 : en:5
    00:29:35.000 : en:6
    00:36:16.000 : en:7
    00:44:49.000 : en:8
    00:49:44.000 : en:9
    00:57:24.000 : en:10
    01:03:08.000 : en:11
    01:10:54.000 : en:12
    01:18:52.000 : en:13
    01:26:53.000 : en:14
    01:34:59.000 : en:15
    01:44:06.000 : en:16


    _________________

      -746

    • Сообщений: 110

    • Откуда: Космический Станция

    Создавать темы 26-Авг-2019 20:40 (спустя 4 дня)

    Топик был перенесен из форума HD в форум HD
    NuRKHoNoFF
    Показать сообщения:    
    Главная  Кинофильмы  Зарубежные кинофильмы  HD

    Текущее время: 16-Сен 08:16

    Часовой пояс: UTC + 5



    Вы не можете начинать темы
    Вы не можете отвечать на сообщения
    Вы не можете редактировать свои сообщения
    Вы не можете удалять свои сообщения
    Вы не можете голосовать в опросах
    Вы не можете прикреплять файлы к сообщениям
    Вы не можете скачивать файлы