Дитя робота / I Am Mother (Грант Спьютор / Grant Sputer) [2019, Ужасы, фантастика, триллер, драма, WEBRip 1080p, HEVC 10bit] iTunes :: UZTOR.PW Лучший трекер в зоне TAS-IX!
Регистрация ·
Имя: Пароль:  
· Забыли пароль?
Уважаемые гости сайта! Добро Пожаловать на наш торрент трекер,где Вы можете бесплатно скачать любой Софт,Фильмы,Музыку и многое другое! А так же постоянно ведется набор модераторов и релизеров. Зарегистрируйтесь сейчас, чтобы получить доступ ко всем функциям. После регистрации или входа на сайт вы сможете создавать темы, отвечать на сообщения и скачивать файлы.

Навигация по Торрент раздачам и Форум

До нового обновления Торрент-Трекер осталось

 Дитя робота / I Am Mother (Грант Спьютор / Grant Sputer) [2019, Ужасы, фантастика, триллер, драма, WEBRip 1080p, HEVC 10bit] iTunes

Главная  Кинофильмы  Кинофильмы (HEVC)  Новинки
Статистика раздачи
Нет
 
     
 
 
Автор Сообщение
  • NuRKHoNoFF ®
  • Не в сети
  • 5064
  • Пол: Мужской

  • Стаж: 10 месяцев 25 дней

  • Сообщений: 832

  • Откуда: Каттакурган

  • Провайдер: TPS TPS

  • Карма: 575


  • Наличие запрета:

  • Награды: 17 (Подробнее)
    Активный релизер 1 (Количество: 1) Активный релизер 2 (Количество: 1) Активный релизер 3 (Количество: 1) Активный релизер 4 (Количество: 1) Активный релизер 5 (Количество: 1)
  • Создавать темы 21-Авг-2019 16:00

    Дитя робота / I Am Mother -Год выпуска: 2019
    Страна: Австралия
    Жанр: Ужасы, фантастика, триллер, драма
    Продолжительность: 01:53:32
    Перевод: Дублированный [iTunes]-Режиссер: Грант Спьютор / Grant Sputer-В ролях: Клара Ругор, Роуз Бирн, Хилари Суэнк, Люк Хокер, Мэдди Лентон, Саммер Лентон, Хэйзел Сэндери, Тейлия Стурзэйкер, Джейкоб Нолан, Джонни Карсон, Таисия Тришина, Татьяна Шитова, Рамиля Искандер-Описание: После глобального катаклизма человечество вымирает. В подземном бункере автоматически активизируется аварийная программа, и робот-гуманоид «Мать» выращивает из эмбриона человеческого ребенка. Девушка, воспитанная под бережным присмотром «Матери», никогда не видела ни поверхности Земли, ни других людей. Но однажды ее мир переворачивается, когда на пороге убежища появляется женщина с просьбой о помощи...- -Качество: WEBRip 1080p HEVC 10bit
    Формат: MKV
    Видео: HEVC, 1920x808, 1387 kb/s
    Аудио №1: AC3, 6 ch, 384 kb/s | RUS
    Аудио №2: AAC, 6 ch, 203 kb/s | ENG-

    MediaInfo

    General
    Unique ID : 292522903252252733001769791678570580137 (0xDC11DCA41E8477938ECE5B80B3C448A9)
    Complete name : I.Am.Mother.2019.1080p.10bit.WEBRip.6CH.x265.HEVC.mkv
    Format : Matroska
    Format version : Version 4
    File size : 1.57 GiB
    Duration : 1 h 53 min
    Overall bit rate : 1 974 kb/s
    Movie name : I.Am.Mother.2019.1080p.10bit.WEBRip.6CH.x265.HEVC
    Encoded date : UTC 2019-08-21 10:41:59
    Writing application : mkvmerge v34.0.0 ('Sight and Seen') 64-bit
    Writing library : libebml v1.3.7 + libmatroska v1.5.0
    Video
    ID : 1
    Format : HEVC
    Format/Info : High Efficiency Video Coding
    Format profile : Main 10@L4@Main
    Codec ID : V_MPEGH/ISO/HEVC
    Duration : 1 h 53 min
    Bit rate : 1 387 kb/s
    Width : 1 920 pixels
    Height : 808 pixels
    Display aspect ratio : 2.40:1
    Frame rate mode : Constant
    Frame rate : 24.000 FPS
    Color space : YUV
    Chroma subsampling : 4:2:0
    Bit depth : 10 bits
    Bits/(Pixel*Frame) : 0.037
    Stream size : 1.10 GiB (70%)
    Default : Yes
    Forced : No
    Audio #1
    ID : 2
    Format : AC-3
    Format/Info : Audio Coding 3
    Commercial name : Dolby Digital
    Codec ID : A_AC3
    Duration : 1 h 53 min
    Bit rate mode : Constant
    Bit rate : 384 kb/s
    Channel(s) : 6 channels
    Channel layout : L R C LFE Ls Rs
    Sampling rate : 48.0 kHz
    Frame rate : 31.250 FPS (1536 SPF)
    Bit depth : 16 bits
    Compression mode : Lossy
    Stream size : 310 MiB (19%)
    Title : iTunes
    Language : Russian
    Service kind : Complete Main
    Default : Yes
    Forced : No
    Audio #2
    ID : 3
    Format : AAC LC SBR
    Format/Info : Advanced Audio Codec Low Complexity with Spectral Band Replication
    Commercial name : HE-AAC
    Format settings : Explicit
    Codec ID : A_AAC-2
    Duration : 1 h 53 min
    Bit rate : 203 kb/s
    Channel(s) : 6 channels
    Channel layout : C L R Ls Rs LFE
    Sampling rate : 48.0 kHz
    Frame rate : 23.438 FPS (2048 SPF)
    Compression mode : Lossy
    Delay relative to video : 23 ms
    Stream size : 165 MiB (10%)
    Language : English
    Default : No
    Forced : No


    _________________
    • NuRKHoNoFF ®
    • Не в сети
    • 5064
    • Пол: Мужской

    • Стаж: 10 месяцев 25 дней

    • Сообщений: 832

    • Откуда: Каттакурган

    • Провайдер: TPS TPS

    • Карма: 575


    • Наличие запрета:

    • Награды: 17 (Подробнее)
      Активный релизер 1 (Количество: 1) Активный релизер 2 (Количество: 1) Активный релизер 3 (Количество: 1) Активный релизер 4 (Количество: 1) Активный релизер 5 (Количество: 1)
  • Создавать темы 21-Авг-2019 16:01 (спустя 1 минута)

    Релиз сделан с помощью современного кодека x265(HEVC), который обеспечивает высокую степень сжатия и отличное качество! Всем приятного просмотра!

    _________________
    Показать сообщения:    
    Главная  Кинофильмы  Кинофильмы (HEVC)  Новинки

    Текущее время: 13-Ноя 01:44

    Часовой пояс: UTC + 5



    Вы не можете начинать темы
    Вы не можете отвечать на сообщения
    Вы не можете редактировать свои сообщения
    Вы не можете удалять свои сообщения
    Вы не можете голосовать в опросах
    Вы не можете прикреплять файлы к сообщениям
    Вы не можете скачивать файлы