Обитель тьмы / Heilstätten (Майкл Дэвид Пэйт / Michael David Pate) [2019, Ужасы, триллер, BDRip 1080p] iTunes :: UZTOR.PW Лучший трекер в зоне TAS-IX!
Регистрация ·
Имя: Пароль:  
· Забыли пароль?
Уважаемые гости сайта! Добро Пожаловать на наш торрент трекер,где Вы можете бесплатно скачать любой Софт,Фильмы,Музыку и многое другое! А так же постоянно ведется набор модераторов и релизеров. Зарегистрируйтесь сейчас, чтобы получить доступ ко всем функциям. После регистрации или входа на сайт вы сможете создавать темы, отвечать на сообщения и скачивать файлы.

Навигация по Торрент раздачам и Форум

До нового обновления Торрент-Трекер осталось

 Обитель тьмы / Heilstätten (Майкл Дэвид Пэйт / Michael David Pate) [2019, Ужасы, триллер, BDRip 1080p] iTunes

Главная  Кинофильмы  Зарубежные кинофильмы  HD
Статистика раздачи
Нет
 
     
 
 
Автор Сообщение
  • NuRKHoNoFF ®
  • Не в сети
  • 5064
  • Пол: Мужской

  • Стаж: 10 месяцев 26 дней

  • Сообщений: 832

  • Откуда: Каттакурган

  • Провайдер: TPS TPS

  • Карма: 575


  • Наличие запрета:

  • Награды: 17 (Подробнее)
    Активный релизер 1 (Количество: 1) Активный релизер 2 (Количество: 1) Активный релизер 3 (Количество: 1) Активный релизер 4 (Количество: 1) Активный релизер 5 (Количество: 1)
  • Создавать темы 19-Авг-2019 00:37

    Обитель тьмы / Heilstätten -Год выпуска: 2019
    Страна: Германия
    Жанр: Ужасы, триллер
    Продолжительность: 01:29:13
    Перевод: Дублированный [iTunes]-Субтитры: Английские-Режиссер: Майкл Дэвид Пэйт / Michael David Pate-В ролях: Нилам Фарук, Фарина Флеббе, Соня Герхардт, Максин Казис, Лиза-Мари Королл, Эмилио Сакрайя, Тим Оливер Шульц, Дэвис Шульц, Тимми Тринкс, Лина Иванова, Ольга Голованова, Татьяна Абрамова, Прохор Чеховской, Татьяна Ермилова-Описание: Пять молодых блогеров проникают на территорию старой больницы, чтобы снять лучший ролик для своего канала. Казалось, что здание заброшено, но очень быстро они понимают, что не одни в этом страшном месте. Теперь им придется выяснить, на все ли они готовы пойти ради популярности.- -Качество: BDRip 1080p
    Формат: MKV
    Видео: AVC, 1920x804, 11400 Kbps, 24.000 fps
    Аудио №1: AC3, 48.0 KHz, 6 ch, 384 kbps | Russian
    Аудио №2: AC3, 48.0 KHz, 6 ch, 640 kbps | German-

    MediaInfo

    General
    Unique ID : 195904808053726174071280999868665101782 (0x9361E4C37E9C86AABD635E91A532FDD6)
    Complete name : Обитель.тьмы.2018.BDRip.1080p.mkv
    Format : Matroska
    Format version : Version 2
    File size : 7.88 GiB
    Duration : 1 h 29 min
    Overall bit rate : 12.6 Mb/s
    Encoded date : UTC 2019-08-18 17:40:56
    Writing application : mkvmerge v5.8.0 ('No Sleep / Pillow') built on Sep 2 2012 15:37:04
    Writing library : libebml v1.2.3 + libmatroska v1.3.0
    Video
    ID : 1
    Format : AVC
    Format/Info : Advanced Video Codec
    Format profile : High@L4.1
    Format settings, CABAC : Yes
    Format settings, RefFrames : 5 frames
    Codec ID : V_MPEG4/ISO/AVC
    Duration : 1 h 29 min
    Bit rate : 11.4 Mb/s
    Width : 1 920 pixels
    Height : 804 pixels
    Display aspect ratio : 2.40:1
    Frame rate mode : Constant
    Frame rate : 24.000 FPS
    Color space : YUV
    Chroma subsampling : 4:2:0
    Bit depth : 8 bits
    Scan type : Progressive
    Bits/(Pixel*Frame) : 0.307
    Stream size : 7.08 GiB (90%)
    Writing library : x264 core 157 r2935 545de2f
    Encoding settings : cabac=1 / ref=5 / deblock=1:-3:-3 / analyse=0x3:0x133 / me=umh / subme=10 / psy=1 / psy_rd=1.00:0.00 / mixed_ref=1 / me_range=32 / chroma_me=1 / trellis=2 / 8x8dct=1 / cqm=0 / deadzone=21,11 / fast_pskip=0 / chroma_qp_offset=-2 / threads=18 / lookahead_threads=4 / sliced_threads=0 / nr=0 / decimate=0 / interlaced=0 / bluray_compat=0 / constrained_intra=0 / bframes=16 / b_pyramid=2 / b_adapt=2 / b_bias=0 / direct=3 / weightb=1 / open_gop=0 / weightp=2 / keyint=240 / keyint_min=24 / scenecut=40 / intra_refresh=0 / rc_lookahead=60 / rc=crf / mbtree=0 / crf=16.5 / qcomp=0.60 / qpmin=0 / qpmax=69 / qpstep=4 / vbv_maxrate=62500 / vbv_bufsize=78125 / crf_max=0.0 / nal_hrd=none / filler=0 / ip_ratio=1.40 / pb_ratio=1.30 / aq=2:1.00
    Language : German
    Default : Yes
    Forced : No
    Color range : Limited
    Color primaries : BT.709
    Transfer characteristics : BT.709
    Matrix coefficients : BT.709
    Audio #1
    ID : 2
    Format : AC-3
    Format/Info : Audio Coding 3
    Format settings, Endianness : Big
    Codec ID : A_AC3
    Duration : 1 h 29 min
    Bit rate mode : Constant
    Bit rate : 384 kb/s
    Channel(s) : 6 channels
    Channel positions : Front: L C R, Side: L R, LFE
    Sampling rate : 48.0 kHz
    Frame rate : 31.250 FPS (1536 SPF)
    Bit depth : 16 bits
    Compression mode : Lossy
    Stream size : 245 MiB (3%)
    Title : DUB, iTunes
    Language : Russian
    Service kind : Complete Main
    Default : Yes
    Forced : No
    Audio #2
    ID : 3
    Format : AC-3
    Format/Info : Audio Coding 3
    Format settings, Endianness : Big
    Codec ID : A_AC3
    Duration : 1 h 29 min
    Bit rate mode : Constant
    Bit rate : 640 kb/s
    Channel(s) : 6 channels
    Channel positions : Front: L C R, Side: L R, LFE
    Sampling rate : 48.0 kHz
    Frame rate : 31.250 FPS (1536 SPF)
    Bit depth : 16 bits
    Compression mode : Lossy
    Stream size : 408 MiB (5%)
    Title : Original
    Language : German
    Service kind : Complete Main
    Default : No
    Forced : No
    Text
    ID : 4
    Format : UTF-8
    Codec ID : S_TEXT/UTF8
    Codec ID/Info : UTF-8 Plain Text
    Language : English
    Default : No
    Forced : No
    Menu
    00:00:00.000 : :Chapter 1
    00:07:04.458 : :Chapter 2
    00:13:27.708 : :Chapter 3
    00:19:27.333 : :Chapter 4
    00:28:36.042 : :Chapter 5
    00:35:25.208 : :Chapter 6
    00:45:21.125 : :Chapter 7
    00:52:31.375 : :Chapter 8
    01:00:55.458 : :Chapter 9
    01:08:51.833 : :Chapter 10
    01:18:47.500 : :Chapter 11
    01:24:04.292 : :Chapter 12


    _________________

      -746

    • Сообщений: 111

    • Откуда: Космический Станция

    Создавать темы 26-Авг-2019 20:40 (спустя 7 дней)

    Топик был перенесен из форума HD в форум HD
    NuRKHoNoFF
    Показать сообщения:    
    Главная  Кинофильмы  Зарубежные кинофильмы  HD

    Текущее время: 13-Ноя 03:01

    Часовой пояс: UTC + 5



    Вы не можете начинать темы
    Вы не можете отвечать на сообщения
    Вы не можете редактировать свои сообщения
    Вы не можете удалять свои сообщения
    Вы не можете голосовать в опросах
    Вы не можете прикреплять файлы к сообщениям
    Вы не можете скачивать файлы