Обитель тьмы / Heilstätten (Майкл Дэвид Пэйт / Michael David Pate) [2019, Ужасы, триллер, WEB-DL 1080p] iTunes :: UZTOR.PW Лучший трекер в зоне TAS-IX!
Регистрация ·
Имя: Пароль:  
· Забыли пароль?
Уважаемые гости сайта! Добро Пожаловать на наш торрент трекер,где Вы можете бесплатно скачать любой Софт,Фильмы,Музыку и многое другое! А так же постоянно ведется набор модераторов и релизеров. Зарегистрируйтесь сейчас, чтобы получить доступ ко всем функциям. После регистрации или входа на сайт вы сможете создавать темы, отвечать на сообщения и скачивать файлы.

Навигация по Торрент раздачам и Форум

До нового обновления Торрент-Трекер осталось

 Обитель тьмы / Heilstätten (Майкл Дэвид Пэйт / Michael David Pate) [2019, Ужасы, триллер, WEB-DL 1080p] iTunes

Главная  Кинофильмы  Зарубежные кинофильмы  HD
Статистика раздачи
Нет
 
     
 
 
Автор Сообщение
  • NuRKHoNoFF ®
  • Не в сети
  • 5064
  • Пол: Мужской

  • Стаж: 11 месяцев 23 дня

  • Сообщений: 919

  • Откуда: Каттакурган

  • Провайдер: TPS TPS

  • Карма: 583


  • Наличие запрета:

  • Награды: 17 (Подробнее)
    Активный релизер 1 (Количество: 1) Активный релизер 2 (Количество: 1) Активный релизер 3 (Количество: 1) Активный релизер 4 (Количество: 1) Активный релизер 5 (Количество: 1)
  • Создавать темы 18-Авг-2019 23:23

    Обитель тьмы / Heilstätten -Год выпуска: 2019
    Страна: Германия
    Жанр: Ужасы, триллер
    Продолжительность: 01:29:03
    Перевод: Дублированный [iTunes]-Режиссер: Майкл Дэвид Пэйт / Michael David Pate-В ролях: Нилам Фарук, Фарина Флеббе, Соня Герхардт, Максин Казис, Лиза-Мари Королл, Эмилио Сакрайя, Тим Оливер Шульц, Дэвис Шульц, Тимми Тринкс, Лина Иванова, Ольга Голованова, Татьяна Абрамова, Прохор Чеховской, Татьяна Ермилова-Описание: Пять молодых блогеров проникают на территорию старой больницы, чтобы снять лучший ролик для своего канала. Казалось, что здание заброшено, но очень быстро они понимают, что не одни в этом страшном месте. Теперь им придется выяснить, на все ли они готовы пойти ради популярности.- -Качество: WEB-DL 1080p
    Формат: MKV
    Видео: AVC, 1920x804, ~4441 kbps, 24 fps
    Аудио: AC3, 48 kHz, 384 kbps, 6 ch-

    MediaInfo

    General
    Unique ID : 241310438367575068195797003442629058296 (0xB58AB32D994A6063889705D2E5571EF8)
    Complete name : Heilstätten_2018_WEB-DL_1080p-BLUEBIRD.mkv
    Format : Matroska
    Format version : Version 4
    File size : 3.06 GiB
    Duration : 1 h 29 min
    Overall bit rate : 4 923 kb/s
    Movie name : Heilstätten_2018_WEB-DL_1080p-BLUEBIRD
    Encoded date : UTC 2019-08-17 18:15:12
    Writing application : mkvmerge v6.9.1 ('Blue Panther') 32bit built on Apr 18 2014 18:15:44
    Writing library : libebml v1.3.0 + libmatroska v1.4.1
    Cover : Yes
    Attachments : cover.png
    Video
    ID : 1
    Format : AVC
    Format/Info : Advanced Video Codec
    Format profile : High@L4
    Format settings : CABAC / 5 Ref Frames
    Format settings, CABAC : Yes
    Format settings, ReFrames : 5 frames
    Codec ID : V_MPEG4/ISO/AVC
    Duration : 1 h 29 min
    Bit rate : 4 441 kb/s
    Width : 1 920 pixels
    Height : 804 pixels
    Display aspect ratio : 2.40:1
    Frame rate mode : Constant
    Frame rate : 24.000 FPS
    Color space : YUV
    Chroma subsampling : 4:2:0
    Bit depth : 8 bits
    Scan type : Progressive
    Bits/(Pixel*Frame) : 0.120
    Stream size : 2.76 GiB (90%)
    Title : Heilstätten_2018_WEB-DL_1080p-BLUEBIRD
    Language : English
    Default : Yes
    Forced : No
    Color range : Limited
    Color primaries : BT.709
    Transfer characteristics : BT.709
    Matrix coefficients : BT.709
    Audio
    ID : 2
    Format : AC-3
    Format/Info : Audio Coding 3
    Commercial name : Dolby Digital
    Codec ID : A_AC3
    Duration : 1 h 29 min
    Bit rate mode : Constant
    Bit rate : 384 kb/s
    Channel(s) : 6 channels
    Channel layout : L R C LFE Ls Rs
    Sampling rate : 48.0 kHz
    Frame rate : 31.250 FPS (1536 SPF)
    Bit depth : 16 bits
    Compression mode : Lossy
    Stream size : 245 MiB (8%)
    Title : [DUB] DD 5.1 @ 384 kbps (iTunes)
    Language : Russian
    Service kind : Complete Main
    Default : Yes
    Forced : No
    Menu
    00:00:00.000 : en:Глава 1
    00:06:54.791 : en:Глава 2
    00:13:18.041 : en:Глава 3
    00:18:29.874 : en:Глава 4
    00:23:58.749 : en:Глава 5
    00:30:16.290 : en:Глава 6
    00:36:06.081 : en:Глава 7
    00:43:09.914 : en:Глава 8
    00:50:59.414 : en:Глава 9
    00:59:15.955 : en:Глава 10
    01:08:42.538 : en:Глава 11
    01:17:39.913 : en:Глава 12


    _________________

      -746

    • Сообщений: 197

    • Откуда: Космический Станция

    Создавать темы 26-Авг-2019 20:39 (спустя 7 дней)

    Топик был перенесен из форума HD в форум HD
    NuRKHoNoFF
    Показать сообщения:    
    Главная  Кинофильмы  Зарубежные кинофильмы  HD

    Текущее время: 10-Дек 02:06

    Часовой пояс: UTC + 5



    Вы не можете начинать темы
    Вы не можете отвечать на сообщения
    Вы не можете редактировать свои сообщения
    Вы не можете удалять свои сообщения
    Вы не можете голосовать в опросах
    Вы не можете прикреплять файлы к сообщениям
    Вы не можете скачивать файлы