Титаник / Titanic (1997) BDRip 1080p | Open Mate | 60 fps :: UZTOR.PW Лучший трекер в зоне TAS-IX!
Регистрация ·
Имя: Пароль:  
· Забыли пароль?

Навигация по Торрент раздачам и Форум

 Титаник / Titanic (1997) BDRip 1080p | Open Mate | 60 fps

Главная  Кинофильмы  Кинофильмы (48-120 FPS)
Статистика раздачи
Нет
 
     
 
 
Автор Сообщение
  • Root ®
  • Не в сети
  • 5065
  • Пол: Мужской

  • Стаж: 9 месяцев 30 дней

  • Сообщений: 77

  • Провайдер: UzOnline UzOnline

  • Telegram: happyman_one

  • Карма: 112


  • Наличие запрета:

  • Награды: 2 (Подробнее)
    Admin (Количество: 1) Speedy (Количество: 1)
  • Создавать темы 13-Авг-2019 13:56

    Название: Титаник
    Оригинальное название: Titanic
    Год выхода: 1997
    Страна: США
    Продолжительность: 03:14:54-Жанр: драма, мелодрама-Режиссер: Джеймс Кэмерон-В ролях: Леонардо ДиКаприо, Кейт Уинслет, Билли Зейн, Кэти Бэйтс, Фрэнсис Фишер, Глория Стюарт, Билл Пэкстон, Бернард Хилл, Дэвид Уорнер, Виктор Гарбер, Джонатан Хайд, Сьюзи Эймис, Льюис Абернати, Николас Каскон, Анатолий Сагалевич, Дэнни Нуччи, Джейсон Бэрри, Ивэн Стюарт, Йоан Гриффит, Джонатан Филлипс, Марк Линдсэй Чэпман, Ричард Грэхэм, Пол Брайтвелл, Рон Донаки, Эрик Браден, Шарлотта Чаттон, Бернард Фокс, Майкл Инсайн, Фанни Бретт, Дженетт Голдстин, Камилла Овербай Рус, Линда Кернс, Эми Джаипа, Мартин Джарвис, Розалинд Эйрс, Рошелль Роуз, Джонатан Эванс-Джонс, Брайан Уолш, Роки Тейлор, Александреа Оуенс, Саймон Крэйн, Эдва-Описание:
    Молодые влюбленные Джек и Роза находят друг друга в первом и последнем плавании «непотопляемого» Титаника. Они не могли знать, что шикарный лайнер столкнется с айсбергом в холодных водах Северной Атлантики, и их страстная любовь превратится в схватку со смертью…--Качество: BDRip 1080p | 60 fps
    Формат: MKV
    Видео: 1920x1080 (16:9) | 60.000 fps | 17.6 Мбит/сек
    Аудио 01: DTS | 5.1 | 48 kHz | 755 kbps | 16 bit | Дубляж CEE | RU
    Аудио 02: AC3 | 5.1 | 48 kHz | 448 kbps | 16 bit | R5 (Отдельно в папке) | RU
    Аудио 03: AC3 | 5.1 | 48 kHz | 448 kbps | 16 bit | НТВ+ (Отдельно в папке) | RU
    Аудио 04: AC3 | 5.1 | 48 kHz | 384 kbps | 16 bit | Киномания (Отдельно в папке) | RU
    Аудио 05: DTS | 5.1 | 48 kHz | 1510 kbps | 16 bit | Гланц и Королева (Отдельно в папке) | RU
    Аудио 06: DTS | 5.1 | 48 kHz | 1510 kbps | 16 bit | Гаврилов (Отдельно в папке) | RU
    Аудио 07: AC3 | 5.1 | 48 kHz | 448 kbps | 16 bit | Живов (Отдельно в папке) | RU
    Аудио 08: AC3 | 2.0 | 48 kHz | 192 kbps | 16 bit | Визгунов (Отдельно в папке) | RU
    Аудио 09: AC3 | 2.0 | 48 kHz | 192 kbps | 16 bit | Кашкин (Отдельно в папке) | RU
    Аудио 10: AC3 | 2.0 | 48 kHz | 192 kbps | 16 bit | Антонов (Отдельно в папке) | RU
    Аудио 11: AC3 | 5.1 | 48 kHz | 448 kbps | 16 bit | Украинский CEE | UKR
    Аудио 12: AC3 | 2.0 | 48 kHz | 192 kbps | 16 bit | Украинский 1+1 | UKR
    Аудио 13: AC3 | 2.0 | 48 kHz | 192 kbps | 16 bit | Украинский Новый канал | UKR
    Аудио 14: DTS | 5.1 | 48 kHz | 1510 kbps | 16 bit | English (Separately in the folder) | EN
    Субтитры: русские (Форсированные Blu-ray CEE), русские (Полные Blu-ray CEE), русские (Полные R5), украинские (Форсированные Blu-ray CEE), украинские (Полные Blu-ray CEE), английские (Полные)

    Информация по видеофайлу

    General
    Unique ID                      : 214965624776575566317204128724673677986 (0xA1B8DF95A47414719297B758B634CAA2)
    Complete name                  : D:\FFOutput\Титаник BDRip1080p 60fps R.G. HD-Films\Титаник.mkv
    Format                         : Matroska
    Format version                 : Version 4
    File size                      : 25.5 GiB
    Duration                       : 3 h 14 min
    Overall bit rate mode          : Variable
    Overall bit rate               : 18.8 Mb/s
    Movie name                     : Tiberiumsun69
    Encoded date                   : UTC 2016-03-20 20:07:57
    Writing application            : mkvmerge v8.3.0 ('Over the Horizon') 64bit
    Writing library                : libebml v1.3.1 + libmatroska v1.4.2
    Cover                          : Yes
    Attachments                    : Cover.png
    Video
    ID                             : 1
    Format                         : AVC
    Format/Info                    : Advanced Video Codec
    Format profile                 : High@L4.2
    Format settings                : CABAC / 3 Ref Frames
    Format settings, CABAC         : Yes
    Format settings, ReFrames      : 3 frames
    Codec ID                       : V_MPEG4/ISO/AVC
    Duration                       : 3 h 14 min
    Bit rate mode                  : Variable
    Bit rate                       : 18.0 Mb/s
    Width                          : 1 920 pixels
    Height                         : 1 080 pixels
    Display aspect ratio           : 16:9
    Frame rate mode                : Constant
    Frame rate                     : 60.000 FPS
    Standard                       : NTSC
    Color space                    : YUV
    Chroma subsampling             : 4:2:0
    Bit depth                      : 8 bits
    Scan type                      : Progressive
    Bits/(Pixel*Frame)             : 0.145
    Stream size                    : 24.5 GiB (96%)
    Title                          : Tiberiumsun69
    Language                       : English
    Default                        : Yes
    Forced                         : No
    Color range                    : Limited
    Color primaries                : BT.709
    Transfer characteristics       : BT.709
    Matrix coefficients            : BT.709
    Audio
    ID                             : 2
    Format                         : DTS
    Format/Info                    : Digital Theater Systems
    Codec ID                       : A_DTS
    Duration                       : 3 h 14 min
    Bit rate mode                  : Constant
    Bit rate                       : 768 kb/s
    Channel(s)                     : 6 channels
    Channel layout                 : C L R Ls Rs LFE
    Sampling rate                  : 48.0 kHz
    Frame rate                     : 93.750 FPS (512 SPF)
    Bit depth                      : 24 bits
    Compression mode               : Lossy
    Stream size                    : 1.05 GiB (4%)
    Title                          : Дубляж
    Language                       : Russian
    Default                        : Yes
    Forced                         : No
    Text #1
    ID                             : 3
    Format                         : UTF-8
    Codec ID                       : S_TEXT/UTF8
    Codec ID/Info                  : UTF-8 Plain Text
    Duration                       : 3 h 13 min
    Bit rate                       : 0 b/s
    Count of elements              : 7
    Stream size                    : 243 Bytes (0%)
    Title                          : Форсированные Blu-ray CEE
    Language                       : Russian
    Default                        : Yes
    Forced                         : No
    Text #2
    ID                             : 4
    Format                         : UTF-8
    Codec ID                       : S_TEXT/UTF8
    Codec ID/Info                  : UTF-8 Plain Text
    Duration                       : 3 h 13 min
    Bit rate                       : 56 b/s
    Count of elements              : 1884
    Stream size                    : 80.3 KiB (0%)
    Title                          : Полные Blu-ray CEE
    Language                       : Russian
    Default                        : No
    Forced                         : No
    Text #3
    ID                             : 5
    Format                         : UTF-8
    Codec ID                       : S_TEXT/UTF8
    Codec ID/Info                  : UTF-8 Plain Text
    Duration                       : 3 h 1 min
    Bit rate                       : 83 b/s
    Count of elements              : 2031
    Stream size                    : 111 KiB (0%)
    Title                          : Полные R5
    Language                       : Russian
    Default                        : No
    Forced                         : No
    Text #4
    ID                             : 6
    Format                         : UTF-8
    Codec ID                       : S_TEXT/UTF8
    Codec ID/Info                  : UTF-8 Plain Text
    Duration                       : 3 h 4 min
    Bit rate                       : 0 b/s
    Count of elements              : 7
    Stream size                    : 256 Bytes (0%)
    Title                          : Форсированные Blu-ray CEE
    Language                       : Ukrainian
    Default                        : No
    Forced                         : No
    Text #5
    ID                             : 7
    Format                         : UTF-8
    Codec ID                       : S_TEXT/UTF8
    Codec ID/Info                  : UTF-8 Plain Text
    Duration                       : 3 h 12 min
    Bit rate                       : 67 b/s
    Count of elements              : 1856
    Stream size                    : 95.1 KiB (0%)
    Title                          : Полные Blu-ray CEE
    Language                       : Ukrainian
    Default                        : No
    Forced                         : No
    Text #6
    ID                             : 8
    Format                         : UTF-8
    Codec ID                       : S_TEXT/UTF8
    Codec ID/Info                  : UTF-8 Plain Text
    Duration                       : 3 h 1 min
    Bit rate                       : 46 b/s
    Count of elements              : 2103
    Stream size                    : 61.4 KiB (0%)
    Title                          : Полные
    Language                       : English
    Default                        : No
    Forced                         : No
    Menu
    00:00:00.000                   : en:Opening Credits
    00:01:24.375                   : en:Ghost Ship
    00:04:39.988                   : en:Into the Wreck
    00:08:26.130                   : en:The Keldysh
    00:10:46.771                   : en:The Woman in the Picture
    00:12:52.646                   : en:Old Rose Arrives
    00:16:52.427                   : en:Reflections of the Past
    00:20:07.748                   : en:Back to Titanic
    00:23:38.875                   : en:A Lucky Hand
    00:26:26.543                   : en:Leaving Port
    00:29:03.366                   : en:Cherbourg
    00:29:37.525                   : en:Ode to Titanic
    00:34:59.930                   : en:First Glance
    00:36:48.622                   : en:"You Jump, I Jump"
    00:42:59.159                   : en:An Invitation to Dinner
    00:45:26.098                   : en:The Heart of the Ocean
    00:47:11.620                   : en:Sketches and Stories
    00:53:33.042                   : en:Learning New Things
    00:56:47.987                   : en:Dinner with Jack
    01:05:32.052                   : en:A Real Party
    01:10:19.965                   : en:A Cold Breakfast
    01:14:06.358                   : en:Sunday Prayer
    01:16:10.690                   : en:"They've Got You Trapped"
    01:19:59.043                   : en:Flying
    01:22:50.506                   : en:"That Was the Last Time..."
    01:23:40.056                   : en:The Drawing
    01:28:21.629                   : en:"My Heart Was Pounding"
    01:29:19.854                   : en:"Find Her"
    01:32:52.274                   : en:Two Souls United
    01:36:59.104                   : en:"Iceberg Right Ahead!"
    01:44:41.149                   : en:An Honest Thief
    01:46:21.040                   : en:A Mathematical Certainty
    01:47:58.846                   : en:A Stricken Relationship
    01:50:11.103                   : en:Andrews Tells Rose
    01:52:21.400                   : en:Women and Children First
    01:53:54.326                   : en:Third Class Patience
    01:55:21.830                   : en:A Small Token of Appreciation
    01:56:10.879                   : en:"Goodbye, Mother"
    01:57:53.232                   : en:"Can Anybody Hear Me?"
    02:06:38.340                   : en:A View From the Lifeboats
    02:08:49.971                   : en:Third Class Panic
    02:11:22.081                   : en:Starting to Fall Apart
    02:15:42.550                   : en:"Get on the Boat, Rose"
    02:19:43.457                   : en:Cal Spurned
    02:21:24.558                   : en:Flooding Below Decks
    02:25:28.760                   : en:Two Tragic Bullets
    02:27:28.422                   : en:Questions of Character
    02:29:07.270                   : en:Captain Smith
    02:29:56.695                   : en:Nearer My God to Thee
    02:33:31.534                   : en:Shattered Dreams
    02:36:52.360                   : en:At the Siren
    02:38:33.878                   : en:Prayer for the Dying
    02:40:34.665                   : en:Death of Titanic
    02:45:00.639                   : en:Sea of Humanity
    02:47:48.807                   : en:In the Lifeboats
    02:49:22.526                   : en:The Promise
    02:52:09.609                   : en:"We Waited Too Long"
    02:53:41.326                   : en:"I'll Never Let Go"
    02:57:53.495                   : en:Never an Absolution
    02:59:35.305                   : en:The Carpathia
    03:01:29.252                   : en:Expedition's End
    03:03:13.648                   : en:Rose's Secret
    03:04:57.877                   : en:A Promise Dept
    03:07:19.643                   : en:End Credits

    Скриншоты


    _________________
    • HDBit
    • Не в сети
    • 5201
    • Пол: Мужской

    • Стаж: 8 месяцев 11 дней

    • Сообщений: 10

    • Провайдер: UzOnline UzOnline

    • Карма: 10


    • Наличие запрета:

    • Награды: Нет
  • Создавать темы 14-Авг-2019 13:36 (спустя 23 часа)

    Root, Классный релиз+, главное Бюджет, Кассовые сборы тоже добавьте, было бы 100% лучше
    Показать сообщения:    
    Главная  Кинофильмы  Кинофильмы (48-120 FPS)

    Текущее время: 18-Окт 08:14

    Часовой пояс: UTC + 5



    Вы не можете начинать темы
    Вы не можете отвечать на сообщения
    Вы не можете редактировать свои сообщения
    Вы не можете удалять свои сообщения
    Вы не можете голосовать в опросах
    Вы не можете прикреплять файлы к сообщениям
    Вы не можете скачивать файлы