Время монстров / The Head Hunter (Джордан Дауни, 2018) [ужасы, фэнтези] BDRip 720p | 60 fps :: UZTOR.PW Трекер для всех
Регистрация ·
Имя: Пароль:  
· Забыли пароль?

Навигация по Торрент раздачам и Форум

 Время монстров / The Head Hunter (Джордан Дауни, 2018) [ужасы, фэнтези] BDRip 720p | 60 fps

Главная  Кинофильмы  Кинофильмы (48-120 FPS)
Статистика раздачи
Нет
 
     
 
 
Автор Сообщение
  • Root ®
  • Не в сети
  • 5065
  • Пол: Мужской

  • Стаж: 8 месяцев 4 дня

  • Сообщений: 79

  • Провайдер: UzOnline UzOnline

  • Telegram: O2602

  • Карма: 112


  • Создавать темы 12-Авг-2019 14:04

    Название: Время монстров
    Оригинальное название: The Head Hunter
    Год выхода: 2017
    Страна: США
    Продолжительность: 1 ч. 12 м. 27 с.-Жанр: ужасы, фэнтези-Режиссер: Джордан Дауни-В ролях: Кристофер Рай,Кора Кауфман-Описание:
    Средневековый воин живёт отшельником в мрачном лесу и жаждет отомстить смертельно опасному существу за смерть единственной дочери. Получая от короля сведения о появляющихся в округе монстрах, он отправляется за их головами, каждый раз надеясь, что встретит своего заклятого врага.--Качество: BDRip 720p | 60 fps
    Формат: MKV
    Видео: 1280 x 720 (1.778) | 59.940 fps | 10.0 Мбит/сек
    Аудио 1: AC-3 | 5.1 | 48 kHz | 384 Кбит/сек | 16 bit | Дубляж | RU
    Аудио 2: DTS-HD MA | 5.1 | 48 kHz | 2103 Кбит/сек / 1509 Кбит/сек | 24 bit | Оригинал | EN
    Субтитры: НЕТ

    Информация по видеофайлу

    General
    Unique ID                      : 102695907990386709987282235854583113563 (0x4D42832F096172B69850BEF850FA275B)
    Complete name                  : D:\FFOutput\Время монстров.mkv
    Format                         : Matroska
    Format version                 : Version 4
    File size                      : 6.31 GiB
    Duration                       : 1 h 12 min
    Overall bit rate mode          : Variable
    Overall bit rate               : 12.5 Mb/s
    Movie name                     : Время монстров / The Head Hunter
    Encoded date                   : UTC 2019-06-14 20:19:06
    Writing application            : mkvmerge v22.0.0 ('At The End Of The World') 64-bit
    Writing library                : libebml v1.3.5 + libmatroska v1.4.8
    Video
    ID                             : 1
    Format                         : AVC
    Format/Info                    : Advanced Video Codec
    Format profile                 : High@L4.1
    Format settings                : CABAC / 8 Ref Frames
    Format settings, CABAC         : Yes
    Format settings, ReFrames      : 8 frames
    Codec ID                       : V_MPEG4/ISO/AVC
    Duration                       : 1 h 12 min
    Bit rate                       : 10 000 kb/s
    Width                          : 1 280 pixels
    Height                         : 720 pixels
    Display aspect ratio           : 16:9
    Frame rate mode                : Constant
    Frame rate                     : 59.940 (60000/1001) FPS
    Color space                    : YUV
    Chroma subsampling             : 4:2:0
    Bit depth                      : 8 bits
    Scan type                      : Progressive
    Bits/(Pixel*Frame)             : 0.181
    Stream size                    : 5.05 GiB (80%)
    Title                          : Талямба: 60-fps.org
    Writing library                : x264 core 146 r2538 121396c
    Encoding settings              : cabac=1 / ref=8 / deblock=1:-2:-2 / analyse=0x3:0x113 / me=umh / subme=9 / psy=1 / psy_rd=1.00:0.25 / mixed_ref=1 / me_range=32 / chroma_me=1 / trellis=2 / 8x8dct=1 / cqm=0 / deadzone=6,6 / fast_pskip=1 / chroma_qp_offset=-4 / threads=12 / lookahead_threads=2 / sliced_threads=0 / nr=0 / decimate=0 / interlaced=0 / bluray_compat=0 / constrained_intra=0 / bframes=3 / b_pyramid=2 / b_adapt=2 / b_bias=0 / direct=3 / weightb=1 / open_gop=0 / weightp=2 / keyint=600 / keyint_min=60 / scenecut=40 / intra_refresh=0 / rc_lookahead=60 / rc=2pass / mbtree=1 / bitrate=10000 / ratetol=1.0 / qcomp=0.80 / qpmin=0 / qpmax=69 / qpstep=4 / cplxblur=20.0 / qblur=0.5 / vbv_maxrate=50000 / vbv_bufsize=50000 / nal_hrd=none / filler=0 / ip_ratio=1.10 / aq=1:0.50
    Language                       : English
    Default                        : Yes
    Forced                         : No
    Audio #1
    ID                             : 2
    Format                         : AC-3
    Format/Info                    : Audio Coding 3
    Commercial name                : Dolby Digital
    Codec ID                       : A_AC3
    Duration                       : 1 h 12 min
    Bit rate mode                  : Constant
    Bit rate                       : 384 kb/s
    Channel(s)                     : 6 channels
    Channel layout                 : L R C LFE Ls Rs
    Sampling rate                  : 48.0 kHz
    Frame rate                     : 31.250 FPS (1536 SPF)
    Bit depth                      : 16 bits
    Compression mode               : Lossy
    Stream size                    : 198 MiB (3%)
    Title                          : iTunes
    Language                       : Russian
    Service kind                   : Complete Main
    Default                        : Yes
    Forced                         : Yes
    Audio #2
    ID                             : 3
    Format                         : DTS XLL
    Format/Info                    : Digital Theater Systems
    Commercial name                : DTS-HD Master Audio
    Codec ID                       : A_DTS
    Duration                       : 1 h 12 min
    Bit rate mode                  : Variable
    Bit rate                       : 2 103 kb/s
    Channel(s)                     : 6 channels
    Channel layout                 : C L R Ls Rs LFE
    Sampling rate                  : 48.0 kHz
    Frame rate                     : 93.750 FPS (512 SPF)
    Bit depth                      : 16 bits
    Compression mode               : Lossless
    Stream size                    : 1.06 GiB (17%)
    Title                          : Original
    Language                       : English
    Default                        : No
    Forced                         : No
    Menu
    00:00:00.000                   : en:Глава 01
    00:05:32.374                   : en:Глава 02
    00:12:24.869                   : en:Глава 03
    00:18:25.396                   : en:Глава 04
    00:25:51.759                   : en:Глава 05
    00:30:01.800                   : en:Глава 06
    00:36:04.537                   : en:Глава 07
    00:42:41.476                   : en:Глава 08
    00:49:05.109                   : en:Глава 09
    00:53:28.622                   : en:Глава 10
    01:01:16.756                   : en:Глава 11
    01:08:15.925                   : en:Глава 12

    Скриншоты


    _________________
    Показать сообщения:    
    Главная  Кинофильмы  Кинофильмы (48-120 FPS)

    Текущее время: 22-Авг 19:52

    Часовой пояс: UTC + 5



    Вы не можете начинать темы
    Вы не можете отвечать на сообщения
    Вы не можете редактировать свои сообщения
    Вы не можете удалять свои сообщения
    Вы не можете голосовать в опросах
    Вы не можете прикреплять файлы к сообщениям
    Вы не можете скачивать файлы