Битва за Землю / Captive State (Руперт Уайатт) 2019 [фантастика, триллер]BDRip 1080p | 60 fps :: UZTOR.PW Лучший трекер в зоне TAS-IX!
Регистрация ·
Имя: Пароль:  
· Забыли пароль?

Навигация по Торрент раздачам и Форум

 Битва за Землю / Captive State (Руперт Уайатт) 2019 [фантастика, триллер]BDRip 1080p | 60 fps

Главная  Кинофильмы  Кинофильмы (48-120 FPS)
Статистика раздачи
Скачал: [ 1 ]
 
     
 
 
Автор Сообщение
  • Root ®
  • Не в сети
  • 5065
  • Пол: Мужской

  • Стаж: 10 месяцев 4 дня

  • Сообщений: 77

  • Провайдер: UzOnline UzOnline

  • Telegram: happyman_one

  • Карма: 112


  • Наличие запрета:

  • Награды: 2 (Подробнее)
    Admin (Количество: 1) Speedy (Количество: 1)
  • Создавать темы 12-Авг-2019 13:24

    Название: Битва за Землю
    Оригинальное название: Captive State
    Год выхода: 2019
    Страна: США
    Продолжительность: 1 ч. 49 м. 34 с.-Жанр: фантастика, триллер-Режиссер: Руперт Уайатт-В ролях: Джон Гудман,Вера Фармига,Эштон Сандерс,Джонатан Мэйджерс,Кевин Данн,Джеймс Рэнсон,Алан Рак,Мадлен Брюэр,Машин Ган Келли,Кевин Дж. О’Коннор-Описание:
    Мы всегда знали, что не одни в этом мире. Мы отправляли сигналы в надежде получить ответ. И нас услышали. За считанные часы пришельцы захватили Землю и установили свое правительство. Сотовая связь и интернет отключены, электронные библиотеки уничтожены. Большой инопланетный брат следит за каждым, его дроны-охотники днем и ночью патрулируют улицы новой Земли. Мы — последние, те, у кого нет имени, невидимые для системы. Сегодня мы вернем нашу планету.--Качество: BDRip 1080p | 60 fps
    Формат: MKV
    Видео: 1920 x 800 (2.400) | 59.940 fps | 20.0 Мбит/сек
    Аудио 1: AC-3 | 5.1 | 48 kHz | 384 Кбит/сек | 16 bit | Дубляж (iTunes) | RU
    Аудио 2: DTS-HD MA | 5.1 | 48 kHz | 3452 Кбит/сек | 16 bit | Оригинал | EN
    Субтитры: RU | EN

    Информация по видеофайлу

    General
    Unique ID                      : 136337345306419816433963468978722730170 (0x66919E1A2441FF116E4A8598460470BA)
    Complete name                  : D:\FFOutput\Битва за Землю.mkv
    Format                         : Matroska
    Format version                 : Version 4
    File size                      : 18.2 GiB
    Duration                       : 1 h 49 min
    Overall bit rate mode          : Variable
    Overall bit rate               : 23.8 Mb/s
    Movie name                     : Битва за Землю / Captive State
    Encoded date                   : UTC 2019-07-28 18:09:30
    Writing application            : mkvmerge v22.0.0 ('At The End Of The World') 64-bit
    Writing library                : libebml v1.3.5 + libmatroska v1.4.8
    Video
    ID                             : 1
    Format                         : AVC
    Format/Info                    : Advanced Video Codec
    Format profile                 : High@L4.1
    Format settings                : CABAC / 5 Ref Frames
    Format settings, CABAC         : Yes
    Format settings, ReFrames      : 5 frames
    Codec ID                       : V_MPEG4/ISO/AVC
    Duration                       : 1 h 49 min
    Bit rate                       : 20.0 Mb/s
    Width                          : 1 920 pixels
    Height                         : 800 pixels
    Display aspect ratio           : 2.40:1
    Frame rate mode                : Constant
    Frame rate                     : 59.940 (60000/1001) FPS
    Color space                    : YUV
    Chroma subsampling             : 4:2:0
    Bit depth                      : 8 bits
    Scan type                      : Progressive
    Bits/(Pixel*Frame)             : 0.217
    Stream size                    : 15.2 GiB (84%)
    Title                          : Талямба
    Writing library                : x264 core 146 r2538 121396c
    Encoding settings              : cabac=1 / ref=5 / deblock=1:-2:-2 / analyse=0x3:0x113 / me=umh / subme=9 / psy=1 / psy_rd=1.00:0.25 / mixed_ref=1 / me_range=32 / chroma_me=1 / trellis=2 / 8x8dct=1 / cqm=0 / deadzone=6,6 / fast_pskip=1 / chroma_qp_offset=-4 / threads=12 / lookahead_threads=2 / sliced_threads=0 / nr=0 / decimate=0 / interlaced=0 / bluray_compat=0 / constrained_intra=0 / bframes=3 / b_pyramid=2 / b_adapt=2 / b_bias=0 / direct=3 / weightb=1 / open_gop=0 / weightp=2 / keyint=600 / keyint_min=60 / scenecut=40 / intra_refresh=0 / rc_lookahead=60 / rc=2pass / mbtree=1 / bitrate=20000 / ratetol=1.0 / qcomp=0.80 / qpmin=0 / qpmax=69 / qpstep=4 / cplxblur=20.0 / qblur=0.5 / vbv_maxrate=50000 / vbv_bufsize=50000 / nal_hrd=none / filler=0 / ip_ratio=1.10 / aq=1:0.50
    Language                       : English
    Default                        : Yes
    Forced                         : No
    Audio #1
    ID                             : 2
    Format                         : AC-3
    Format/Info                    : Audio Coding 3
    Commercial name                : Dolby Digital
    Codec ID                       : A_AC3
    Duration                       : 1 h 49 min
    Bit rate mode                  : Constant
    Bit rate                       : 384 kb/s
    Channel(s)                     : 6 channels
    Channel layout                 : L R C LFE Ls Rs
    Sampling rate                  : 48.0 kHz
    Frame rate                     : 31.250 FPS (1536 SPF)
    Bit depth                      : 16 bits
    Compression mode               : Lossy
    Stream size                    : 301 MiB (2%)
    Title                          : Дубляж (iTunes)
    Language                       : Russian
    Service kind                   : Complete Main
    Default                        : Yes
    Forced                         : No
    Audio #2
    ID                             : 3
    Format                         : DTS XLL
    Format/Info                    : Digital Theater Systems
    Commercial name                : DTS-HD Master Audio
    Codec ID                       : A_DTS
    Duration                       : 1 h 49 min
    Bit rate mode                  : Variable
    Bit rate                       : 3 452 kb/s
    Channel(s)                     : 6 channels
    Channel layout                 : C L R Ls Rs LFE
    Sampling rate                  : 48.0 kHz
    Frame rate                     : 93.750 FPS (512 SPF)
    Bit depth                      : 24 bits
    Compression mode               : Lossless
    Stream size                    : 2.64 GiB (15%)
    Title                          : Original
    Language                       : English
    Default                        : No
    Forced                         : No
    Text #1
    ID                             : 4
    Format                         : UTF-8
    Codec ID                       : S_TEXT/UTF8
    Codec ID/Info                  : UTF-8 Plain Text
    Duration                       : 1 h 44 min
    Bit rate                       : 60 b/s
    Count of elements              : 849
    Stream size                    : 46.0 KiB (0%)
    Title                          : Full
    Language                       : Russian
    Default                        : No
    Forced                         : No
    Text #2
    ID                             : 5
    Format                         : UTF-8
    Codec ID                       : S_TEXT/UTF8
    Codec ID/Info                  : UTF-8 Plain Text
    Duration                       : 1 h 44 min
    Bit rate                       : 35 b/s
    Count of elements              : 803
    Stream size                    : 27.5 KiB (0%)
    Title                          : Full
    Language                       : English
    Default                        : No
    Forced                         : No
    Text #3
    ID                             : 6
    Format                         : UTF-8
    Codec ID                       : S_TEXT/UTF8
    Codec ID/Info                  : UTF-8 Plain Text
    Duration                       : 1 h 45 min
    Bit rate                       : 46 b/s
    Count of elements              : 1123
    Stream size                    : 35.6 KiB (0%)
    Title                          : SDH
    Language                       : English
    Default                        : No
    Forced                         : No
    Menu
    00:00:00.000                   : en:Chapter 01
    00:06:25.385                   : en:Chapter 02
    00:12:34.671                   : en:Chapter 03
    00:18:46.000                   : en:Chapter 04
    00:24:21.377                   : en:Chapter 05
    00:26:55.113                   : en:Chapter 06
    00:32:44.504                   : en:Chapter 07
    00:38:27.597                   : en:Chapter 08
    00:43:36.948                   : en:Chapter 09
    00:47:17.626                   : en:Chapter 10
    00:52:14.465                   : en:Chapter 11
    01:00:01.598                   : en:Chapter 12
    01:06:42.373                   : en:Chapter 13
    01:11:29.577                   : en:Chapter 14
    01:15:18.222                   : en:Chapter 15
    01:19:40.859                   : en:Chapter 16
    01:23:32.049                   : en:Chapter 17
    01:31:46.543                   : en:Chapter 18
    01:38:12.011                   : en:Chapter 19
    01:45:00.711                   : en:Chapter 20

    Скриншоты


    _________________
    Показать сообщения:    
    Главная  Кинофильмы  Кинофильмы (48-120 FPS)

    Текущее время: 22-Окт 17:52

    Часовой пояс: UTC + 5



    Вы не можете начинать темы
    Вы не можете отвечать на сообщения
    Вы не можете редактировать свои сообщения
    Вы не можете удалять свои сообщения
    Вы не можете голосовать в опросах
    Вы не можете прикреплять файлы к сообщениям
    Вы не можете скачивать файлы