Команда «А» / The A-Team (Джо Карнахан /Joe Carnahan) [2010, Боевик, комедия, триллер, BDRip-AVC] | Extended Cut :: UZTOR.PW Трекер для всех
Регистрация ·
Имя: Пароль:  
· Забыли пароль?

Навигация по Торрент раздачам и Форум

 Команда «А» / The A-Team (Джо Карнахан /Joe Carnahan) [2010, Боевик, комедия, триллер, BDRip-AVC] | Extended Cut

Главная  Кинофильмы  Зарубежные кинофильмы  HD-AVC
Статистика раздачи
Нет
 
     
 
 
Автор Сообщение
  • NuRKHoNoFF ®
  • Не в сети
  • 5064

  • Пол: Мужской

  • Стаж: 8 месяцев

  • Сообщений: 513

  • Откуда: Каттакурган

  • Провайдер: UzOnline UzOnline

  • Карма: 547


  • Создавать темы 11-Авг-2019 23:14

    Команда «А» / The A-Team -Год выпуска: 2010
    Страна: США, Великобритания
    Жанр: Боевик, комедия, триллер
    Продолжительность: 02:13:33
    Перевод: Профессиональный (полное дублирование) [BD CEE]-Субтитры: Русские (полные + форс.), английские (полные + форс. + SDH)-Режиссер: Джо Карнахан /Joe Carnahan-В ролях: Лиам Нисон, Брэдли Купер, Джессика Бил, Куинтон Джексон, Шарлто Копли, Патрик Уилсон, Джералд Мак, РэйниГенри Черни, Юл Васкез, Брайан Блум-Описание: Полнометражная версия сериала 80-х годов «Команда А». Последний вариант истории, написанный Джейсоном Ротуэллом, вращается вокруг группы ветеранов войны в Ираке. Их разыскивают вооруженные силы США по обвинению в преступлении, которого герои не совершали. Скрываясь от преследования, они успевают помогать обиженным и оскорбленным. Новизну старой истории придают вовлеченные в нее нефтяные заправилы и лазерные технологии.- -Качество: BDRip-AVC
    Формат: MKV
    Видео: x.264, 1040x442 (2,35:1), 23,976 fps, 2224 Кbps, 0.202 bit/pixel
    Аудио №1: 48 kHz, AC3 Dolby Digital, 3/2 (L,C,R,l,r) + LFE ch, 448.00 kbps | RUS
    Аудио №2: 48 kHz, AC3 Dolby Digital, 3/2 (L,C,R,l,r) + LFE ch, 448.00 kbps | ENG-

    MediaInfo

    General
    Unique ID : 247967200431533419852004248775382006959 (0xBA8CBEE3291F33DF9A4E5C84610FFCAF)
    Complete name : Komanda.A.2010.DUAL.Extended.BDRip.x264.-HELLYWOOD.mkv
    Format : Matroska
    Format version : Version 4
    File size : 2.91 GiB
    Duration : 2 h 13 min
    Overall bit rate : 3 118 kb/s
    Movie name : HELLYWOOD - rip by potroks
    Encoded date : UTC 2013-11-20 04:55:51
    Writing application : mkvmerge v5.9.0 ('On The Loose') built on Dec 15 2012 16:39:58
    Writing library : libebml v1.3.0 + libmatroska v1.4.0
    Video
    ID : 1
    Format : AVC
    Format/Info : Advanced Video Codec
    Format profile : High@L4.1
    Format settings : CABAC / 10 Ref Frames
    Format settings, CABAC : Yes
    Format settings, ReFrames : 10 frames
    Codec ID : V_MPEG4/ISO/AVC
    Duration : 2 h 13 min
    Bit rate : 2 224 kb/s
    Width : 1 040 pixels
    Height : 442 pixels
    Display aspect ratio : 2.35:1
    Frame rate mode : Constant
    Frame rate : 23.976 FPS
    Color space : YUV
    Chroma subsampling : 4:2:0
    Bit depth : 8 bits
    Scan type : Progressive
    Bits/(Pixel*Frame) : 0.202
    Stream size : 2.01 GiB (69%)
    Title : The A-Team
    Writing library : x264 core 130 r2273 b3065e6
    Encoding settings : cabac=1 / ref=10 / deblock=1:-3:-3 / analyse=0x3:0x133 / me=umh / subme=11 / psy=1 / psy_rd=1.00:0.03 / mixed_ref=1 / me_range=48 / chroma_me=1 / trellis=2 / 8x8dct=1 / cqm=0 / deadzone=21,11 / fast_pskip=0 / chroma_qp_offset=-3 / threads=9 / lookahead_threads=6 / sliced_threads=0 / nr=0 / decimate=0 / interlaced=0 / bluray_compat=0 / constrained_intra=0 / bframes=11 / b_pyramid=2 / b_adapt=2 / b_bias=0 / direct=3 / weightb=1 / open_gop=0 / weightp=2 / keyint=240 / keyint_min=23 / scenecut=40 / intra_refresh=0 / rc_lookahead=60 / rc=2pass / mbtree=0 / bitrate=2224 / ratetol=1.0 / qcomp=0.70 / qpmin=0 / qpmax=69 / qpstep=4 / cplxblur=20.0 / qblur=0.5 / vbv_maxrate=20000 / vbv_bufsize=20000 / nal_hrd=none / ip_ratio=1.35 / pb_ratio=1.25 / aq=1:0.90
    Language : English
    Default : Yes
    Forced : No
    Audio #1
    ID : 2
    Format : AC-3
    Format/Info : Audio Coding 3
    Commercial name : Dolby Digital
    Codec ID : A_AC3
    Duration : 2 h 13 min
    Bit rate mode : Constant
    Bit rate : 448 kb/s
    Channel(s) : 6 channels
    Channel layout : L R C LFE Ls Rs
    Sampling rate : 48.0 kHz
    Frame rate : 31.250 FPS (1536 SPF)
    Bit depth : 16 bits
    Compression mode : Lossy
    Stream size : 428 MiB (14%)
    Title : Dub | DD 5.1 @ 448 kbps - BD CEE
    Language : Russian
    Service kind : Complete Main
    Default : Yes
    Forced : Yes
    Audio #2
    ID : 3
    Format : AC-3
    Format/Info : Audio Coding 3
    Commercial name : Dolby Digital
    Codec ID : A_AC3
    Duration : 2 h 13 min
    Bit rate mode : Constant
    Bit rate : 448 kb/s
    Channel(s) : 6 channels
    Channel layout : L R C LFE Ls Rs
    Sampling rate : 48.0 kHz
    Frame rate : 31.250 FPS (1536 SPF)
    Bit depth : 16 bits
    Compression mode : Lossy
    Stream size : 428 MiB (14%)
    Title : Original | DD 5.1 @ 448 kbps
    Language : English
    Service kind : Complete Main
    Default : No
    Forced : No
    Text #1
    ID : 4
    Format : UTF-8
    Codec ID : S_TEXT/UTF8
    Codec ID/Info : UTF-8 Plain Text
    Title : Forced
    Language : Russian
    Default : Yes
    Forced : No
    Text #2
    ID : 5
    Format : UTF-8
    Codec ID : S_TEXT/UTF8
    Codec ID/Info : UTF-8 Plain Text
    Language : Russian
    Default : No
    Forced : No
    Text #3
    ID : 6
    Format : UTF-8
    Codec ID : S_TEXT/UTF8
    Codec ID/Info : UTF-8 Plain Text
    Title : Forced
    Language : English
    Default : No
    Forced : No
    Text #4
    ID : 7
    Format : UTF-8
    Codec ID : S_TEXT/UTF8
    Codec ID/Info : UTF-8 Plain Text
    Language : English
    Default : No
    Forced : No
    Text #5
    ID : 8
    Format : UTF-8
    Codec ID : S_TEXT/UTF8
    Codec ID/Info : UTF-8 Plain Text
    Title : SDH
    Language : English
    Default : No
    Forced : No
    Menu
    00:00:00.000 : en:Gringo in Mexico
    00:05:17.400 : en:All Tyred Up
    00:13:31.268 : en:Mad Dog
    00:21:10.769 : en:80 Missions Later
    00:26:32.340 : en:Frat Boys with Trigger Fingers
    00:37:42.802 : en:The Plan
    00:45:23.554 : en:Plan Blows Apart
    00:49:30.258 : en:6 Months of Prison
    00:56:53.868 : en:Jamming the Signal
    01:02:40.548 : en:Movie Time
    01:09:43.053 : en:Tank Turbulence
    01:15:19.639 : en:Which Way to Berlin?
    01:23:06.356 : en:The Transaction
    01:28:54.578 : en:I Trust You
    01:35:56.834 : en:Exactly Like Call of Duty
    01:38:35.951 : en:Give Me 20 Minutes
    01:43:12.519 : en:Ba the Banana
    01:49:42.825 : en:Showtime
    01:57:19.573 : en:Looking All Over for You
    02:07:00.654 : en:End Credits

    Показать сообщения:    
    Главная  Кинофильмы  Зарубежные кинофильмы  HD-AVC

    Текущее время: 18-Авг 21:18

    Часовой пояс: UTC + 5



    Вы не можете начинать темы
    Вы не можете отвечать на сообщения
    Вы не можете редактировать свои сообщения
    Вы не можете удалять свои сообщения
    Вы не можете голосовать в опросах
    Вы не можете прикреплять файлы к сообщениям
    Вы не можете скачивать файлы