Мстители: Финал / Avengers: Endgame (Энтони Руссо, Джо Руссо / Anthony Russo, Joe Russo) [2019, Фантастика, фэнтези, боевик, приключения, BDRip 1080p HEVC 10bit] iTunes :: UZTOR.PW Трекер для всех
Регистрация ·
Имя: Пароль:  
· Забыли пароль?

Навигация по Торрент раздачам и Форум

 Мстители: Финал / Avengers: Endgame (Энтони Руссо, Джо Руссо / Anthony Russo, Joe Russo) [2019, Фантастика, фэнтези, боевик, приключения, BDRip 1080p HEVC 10bit] iTunes

Главная  Кинофильмы  Кинофильмы (HEVC)  Новинки
Статистика раздачи
Нет
 
     
 
 
Автор Сообщение
  • NuRKHoNoFF ®
  • Не в сети
  • 5064
  • Пол: Мужской

  • Стаж: 8 месяцев 4 дня

  • Сообщений: 530

  • Откуда: Каттакурган

  • Провайдер: TPS TPS

  • Карма: 547


  • Создавать темы 11-Авг-2019 23:12

    Мстители: Финал / Avengers: Endgame -Год выпуска: 2019
    Страна: США
    Жанр: Фантастика, фэнтези, боевик, приключения
    Продолжительность: 03:01:11
    Перевод: Дублированный [iTunes]-Субтитры: Англиские (SDH)-Режиссер: Энтони Руссо, Джо Руссо / Anthony Russo, Joe Russo-В ролях: Бри Ларсон, Линда Карделлини, Скарлетт Йоханссон, Карен Гиллан, Тесса Томпсон, Роберт Дауни мл., Крис Хемсворт, Крис Эванс, Эванджелин Лилли, Хейли Этвелл, Марк Руффало, Джереми Реннер, Дон Чидл, Пол Радд-Описание: Оставшиеся в живых члены команды Мстителей и их союзники должны разработать новый план, который поможет противостоять разрушительным действиям могущественного титана Таноса. После наиболее масштабной и трагической битвы в истории они не могут допустить ошибку.- -Качество: BDRip 1080p HEVC 10bit
    Формат: MKV
    Видео: HEVC, 1912 kb/s, 1920X808
    Аудио №1: AC3, 6 ch, 384 kb/s | RUS
    Аудио №2: AAC, 8 ch, 304 kb/s | ENG-

    MediaInfo

    General
    Unique ID : 285175413787073690888541888043605304222 (0xD68AC97111CEBFD47289195C0A40239E)
    Complete name : Avengers.Endgame.2019.1080p.10bit.BluRay.8CH.x265.HEVC.mkv
    Format : Matroska
    Format version : Version 4
    File size : 3.29 GiB
    Duration : 3 h 1 min
    Overall bit rate : 2 602 kb/s
    Movie name : Avengers.Endgame.2019.1080p.10bit.BluRay.8CH.x265.HEVC
    Encoded date : UTC 2019-08-10 15:45:24
    Writing application : mkvmerge v34.0.0 ('Sight and Seen') 64-bit
    Writing library : libebml v1.3.7 + libmatroska v1.5.0
    Video
    ID : 1
    Format : HEVC
    Format/Info : High Efficiency Video Coding
    Format profile : Main 10@L4@Main
    Codec ID : V_MPEGH/ISO/HEVC
    Duration : 3 h 1 min
    Bit rate : 1 912 kb/s
    Width : 1 920 pixels
    Height : 808 pixels
    Display aspect ratio : 2.40:1
    Frame rate mode : Constant
    Frame rate : 23.976 (24000/1001) FPS
    Color space : YUV
    Chroma subsampling : 4:2:0
    Bit depth : 10 bits
    Bits/(Pixel*Frame) : 0.051
    Stream size : 2.42 GiB (73%)
    Default : Yes
    Forced : No
    Audio #1
    ID : 2
    Format : AC-3
    Format/Info : Audio Coding 3
    Commercial name : Dolby Digital
    Codec ID : A_AC3
    Duration : 3 h 1 min
    Bit rate mode : Constant
    Bit rate : 384 kb/s
    Channel(s) : 6 channels
    Channel layout : L R C LFE Ls Rs
    Sampling rate : 48.0 kHz
    Frame rate : 31.250 FPS (1536 SPF)
    Bit depth : 16 bits
    Compression mode : Lossy
    Stream size : 498 MiB (15%)
    Title : iTunes
    Language : Russian
    Service kind : Complete Main
    Default : Yes
    Forced : No
    Audio #2
    ID : 3
    Format : AAC LC SBR
    Format/Info : Advanced Audio Codec Low Complexity with Spectral Band Replication
    Commercial name : HE-AAC
    Format settings : Explicit
    Codec ID : A_AAC-2
    Duration : 3 h 1 min
    Bit rate : 304 kb/s
    Channel(s) : 8 channels
    Channel layout : C L R Ls Rs Lb Rb LFE
    Sampling rate : 48.0 kHz
    Frame rate : 23.438 FPS (2048 SPF)
    Compression mode : Lossy
    Delay relative to video : 31 ms
    Stream size : 394 MiB (12%)
    Language : English
    Default : No
    Forced : No
    Text #1
    ID : 4
    Format : UTF-8
    Codec ID : S_TEXT/UTF8
    Codec ID/Info : UTF-8 Plain Text
    Duration : 2 h 48 min
    Bit rate : 49 b/s
    Count of elements : 2330
    Stream size : 61.1 KiB (0%)
    Language : English
    Default : Yes
    Forced : No
    Text #2
    ID : 5
    Format : UTF-8
    Codec ID : S_TEXT/UTF8
    Codec ID/Info : UTF-8 Plain Text
    Duration : 3 h 0 min
    Bit rate : 51 b/s
    Count of elements : 2630
    Stream size : 68.3 KiB (0%)
    Title : SDH
    Language : English
    Default : No
    Forced : No


    _________________
    Показать сообщения:    
    Главная  Кинофильмы  Кинофильмы (HEVC)  Новинки

    Текущее время: 22-Авг 19:40

    Часовой пояс: UTC + 5



    Вы не можете начинать темы
    Вы не можете отвечать на сообщения
    Вы не можете редактировать свои сообщения
    Вы не можете удалять свои сообщения
    Вы не можете голосовать в опросах
    Вы не можете прикреплять файлы к сообщениям
    Вы не можете скачивать файлы