Мстители: Финал / Avengers: Endgame (Энтони Руссо, Джо Руссо / Anthony Russo, Joe Russo) [2019, Фантастика, фэнтези, боевик, приключения, WEB-DL 1080p HEVC 10bit] iTunes :: UZTOR.PW Лучший трекер в зоне TAS-IX!
Регистрация ·
Имя: Пароль:  
· Забыли пароль?
Уважаемые гости сайта! Добро Пожаловать на наш торрент трекер,где Вы можете бесплатно скачать любой Софт,Фильмы,Музыку и многое другое! А так же постоянно ведется набор модераторов и релизеров. Зарегистрируйтесь сейчас, чтобы получить доступ ко всем функциям. После регистрации или входа на сайт вы сможете создавать темы, отвечать на сообщения и скачивать файлы.

Навигация по Торрент раздачам и Форум

До нового обновления Торрент-Трекер осталось

 Мстители: Финал / Avengers: Endgame (Энтони Руссо, Джо Руссо / Anthony Russo, Joe Russo) [2019, Фантастика, фэнтези, боевик, приключения, WEB-DL 1080p HEVC 10bit] iTunes

Главная  Кинофильмы  Кинофильмы (HEVC)  Новинки
Статистика раздачи
Нет
 
     
 
 
Автор Сообщение
  • NuRKHoNoFF ®
  • Не в сети
  • 5064
  • Пол: Мужской

  • Стаж: 11 месяцев 23 дня

  • Сообщений: 919

  • Откуда: Каттакурган

  • Провайдер: TPS TPS

  • Карма: 583


  • Наличие запрета:

  • Награды: 17 (Подробнее)
    Активный релизер 1 (Количество: 1) Активный релизер 2 (Количество: 1) Активный релизер 3 (Количество: 1) Активный релизер 4 (Количество: 1) Активный релизер 5 (Количество: 1)
  • Создавать темы 03-Авг-2019 14:12

    Мстители: Финал / Avengers: Endgame -Год выпуска: 2019
    Страна: США
    Жанр: Фантастика, фэнтези, боевик, приключения
    Продолжительность: 03:01:09
    Перевод: Дублированный [iTunes]-Субтитры: Англиские (SDH)-Режиссер: Энтони Руссо, Джо Руссо / Anthony Russo, Joe Russo-В ролях: Бри Ларсон, Линда Карделлини, Скарлетт Йоханссон, Карен Гиллан, Тесса Томпсон, Роберт Дауни мл., Крис Хемсворт, Крис Эванс, Эванджелин Лилли, Хейли Этвелл, Марк Руффало, Джереми Реннер, Дон Чидл, Пол Радд-Описание: Оставшиеся в живых члены команды Мстителей и их союзники должны разработать новый план, который поможет противостоять разрушительным действиям могущественного титана Таноса. После наиболее масштабной и трагической битвы в истории они не могут допустить ошибку.- -Качество: WEB-DL 1080p HEVC 10bit
    Формат: MKV
    Видео: HEVC, 1602 kb/s, 1920x808
    Аудио №1: AC3, 6 ch, 384 kb/s | RUS
    Аудио №2: AAC, 6 ch, 208 kb/s | ENG-

    MediaInfo

    General
    Unique ID : 32210687190038841120040641602591773038 (0x183B8D7DAC224A53FEBE86E12615D16E)
    Complete name : Avengers.Endgame.2019.1080p.10bit.WEB-DL.6CH.x265.HEVC.mkv
    Format : Matroska
    Format version : Version 4
    File size : 2.78 GiB
    Duration : 3 h 1 min
    Overall bit rate : 2 189 kb/s
    Movie name : Avengers.Endgame.2019.1080p.10bit.WEB-DL.6CH.x265.HEVC
    Encoded date : UTC 2019-08-03 08:26:39
    Writing application : mkvmerge v34.0.0 ('Sight and Seen') 64-bit
    Writing library : libebml v1.3.7 + libmatroska v1.5.0
    Video
    ID : 1
    Format : HEVC
    Format/Info : High Efficiency Video Coding
    Format profile : Main 10@L4@Main
    Codec ID : V_MPEGH/ISO/HEVC
    Duration : 3 h 1 min
    Bit rate : 1 602 kb/s
    Width : 1 920 pixels
    Height : 800 pixels
    Display aspect ratio : 2.40:1
    Frame rate mode : Constant
    Frame rate : 23.976 (24000/1001) FPS
    Color space : YUV
    Chroma subsampling : 4:2:0
    Bit depth : 10 bits
    Bits/(Pixel*Frame) : 0.043
    Stream size : 2.03 GiB (73%)
    Default : Yes
    Forced : No
    Audio #1
    ID : 2
    Format : AC-3
    Format/Info : Audio Coding 3
    Commercial name : Dolby Digital
    Codec ID : A_AC3
    Duration : 3 h 1 min
    Bit rate mode : Constant
    Bit rate : 384 kb/s
    Channel(s) : 6 channels
    Channel layout : L R C LFE Ls Rs
    Sampling rate : 48.0 kHz
    Frame rate : 31.250 FPS (1536 SPF)
    Bit depth : 16 bits
    Compression mode : Lossy
    Stream size : 498 MiB (17%)
    Title : iTunes
    Language : Russian
    Service kind : Complete Main
    Default : Yes
    Forced : No
    Audio #2
    ID : 3
    Format : AAC LC SBR
    Format/Info : Advanced Audio Codec Low Complexity with Spectral Band Replication
    Commercial name : HE-AAC
    Format settings : Explicit
    Codec ID : A_AAC-2
    Duration : 3 h 1 min
    Bit rate : 208 kb/s
    Channel(s) : 6 channels
    Channel layout : C L R Ls Rs LFE
    Sampling rate : 48.0 kHz
    Frame rate : 23.438 FPS (2048 SPF)
    Compression mode : Lossy
    Delay relative to video : 23 ms
    Stream size : 271 MiB (10%)
    Language : English
    Default : No
    Forced : No
    Text #1
    ID : 4
    Format : UTF-8
    Codec ID : S_TEXT/UTF8
    Codec ID/Info : UTF-8 Plain Text
    Duration : 2 h 48 min
    Bit rate : 50 b/s
    Count of elements : 2340
    Stream size : 61.7 KiB (0%)
    Language : English
    Default : Yes
    Forced : No
    Text #2
    ID : 5
    Format : UTF-8
    Codec ID : S_TEXT/UTF8
    Codec ID/Info : UTF-8 Plain Text
    Duration : 3 h 0 min
    Bit rate : 52 b/s
    Count of elements : 2643
    Stream size : 69.0 KiB (0%)
    Title : SDH
    Language : English
    Default : No
    Forced : No


    _________________
    • NuRKHoNoFF ®
    • Не в сети
    • 5064
    • Пол: Мужской

    • Стаж: 11 месяцев 23 дня

    • Сообщений: 919

    • Откуда: Каттакурган

    • Провайдер: TPS TPS

    • Карма: 583


    • Наличие запрета:

    • Награды: 17 (Подробнее)
      Активный релизер 1 (Количество: 1) Активный релизер 2 (Количество: 1) Активный релизер 3 (Количество: 1) Активный релизер 4 (Количество: 1) Активный релизер 5 (Количество: 1)
  • Создавать темы 03-Авг-2019 14:12 (спустя 27 секунд)

    Релиз сделан с помощью современного кодека x265(HEVC), который обеспечивает высокую степень сжатия и отличное качество! Всем Приятного просмотра.

    _________________
    Показать сообщения:    
    Главная  Кинофильмы  Кинофильмы (HEVC)  Новинки

    Текущее время: 10-Дек 10:08

    Часовой пояс: UTC + 5



    Вы не можете начинать темы
    Вы не можете отвечать на сообщения
    Вы не можете редактировать свои сообщения
    Вы не можете удалять свои сообщения
    Вы не можете голосовать в опросах
    Вы не можете прикреплять файлы к сообщениям
    Вы не можете скачивать файлы