Домино / Domino (Брайан Де Пальма / Brian De Palma) [2019, Триллер, криминал, WEB-DLRip-HEVC 720p] iTunes :: UZTOR.PW Лучший трекер в зоне TAS-IX!
Регистрация ·
Имя: Пароль:  
· Забыли пароль?
Уважаемые гости сайта! Добро Пожаловать на наш торрент трекер,где Вы можете бесплатно скачать любой Софт,Фильмы,Музыку и многое другое! А так же постоянно ведется набор модераторов и релизеров. Зарегистрируйтесь сейчас, чтобы получить доступ ко всем функциям. После регистрации или входа на сайт вы сможете создавать темы, отвечать на сообщения и скачивать файлы.

Навигация по Торрент раздачам и Форум

До нового обновления Торрент-Трекер осталось

 Домино / Domino (Брайан Де Пальма / Brian De Palma) [2019, Триллер, криминал, WEB-DLRip-HEVC 720p] iTunes

Главная  Кинофильмы  Кинофильмы (HEVC)  Новинки
Статистика раздачи
Нет
 
     
 
 
Автор Сообщение
  • NuRKHoNoFF ®
  • Не в сети
  • 5064
  • Пол: Мужской

  • Стаж: 11 месяцев 23 дня

  • Сообщений: 919

  • Откуда: Каттакурган

  • Провайдер: TPS TPS

  • Карма: 583


  • Наличие запрета:

  • Награды: 17 (Подробнее)
    Активный релизер 1 (Количество: 1) Активный релизер 2 (Количество: 1) Активный релизер 3 (Количество: 1) Активный релизер 4 (Количество: 1) Активный релизер 5 (Количество: 1)
  • Создавать темы 31-Июл-2019 16:07

    Домино / Domino -Год выпуска: 2019
    Страна: Дания, Франция, Италия, Бельгия, Нидерланды
    Жанр: Триллер, криминал
    Продолжительность: 01:29:15
    Перевод: Дублированный [iTunes]
    Перевод: Профессиональный (многоголосый, закадровый) [HDrezka Studio]-Субтитры: Английские-Режиссер: Брайан Де Пальма-В ролях: Николай Костер-Валдау, Кэрис ван Хаутен, Гай Пирс, Сёрен Маллинг, Паприка Стеэн, Николас Бро, Томас В. Габриэльссон, Якоб Ульрик Ломанн, Элла-Джун Генрард, Эрик Эбони-Описание: Офицер полиции Копенгагена жаждет отомстить за смерть напарника от руки некоего Имрана. Охоту на убийцу он ведёт в компании с любовницей погибшего коллеги. Однако оба они становятся жертвами агента ЦРУ, подставившего Имрана.- -Качество: WEB-DLRip-HEVC 720p
    Формат: MKV
    Видео: HEVC, 1280x672, 977 kbps, 23,976 fps
    Звук №1: AC3, 5.1 ch, 48 kHz, 384 kbps | iTunes
    Звук №2: AC3, 2.0 ch, 48 kHz, 192 kbps | HDRezka Studio
    Звук №3: AAC, 2.0 ch, 48 kHz, 70 kbps | Оригинал-

    MediaInfo

    General
    Unique ID : 229877700864402428867455004560038448554 (0xACF0D5B31AB20F7F76BD1B4B81724DAA)
    Complete name : Domino.2019.720p.WEB-DL.2CH.x265.HEVC.mkv
    Format : Matroska
    Format version : Version 4
    File size : 1.01 GiB
    Duration : 1 h 29 min
    Overall bit rate : 1 625 kb/s
    Movie name : PSArips.com | Domino.2019.720p.WEB-DL.2CH.x265.HEVC-PSA
    Encoded date : UTC 2019-07-31 09:54:42
    Writing application : mkvmerge v34.0.0 ('Sight and Seen') 64-bit
    Writing library : libebml v1.3.7 + libmatroska v1.5.0
    Video
    ID : 1
    Format : HEVC
    Format/Info : High Efficiency Video Coding
    Format profile : Main@L3.1@Main
    Codec ID : V_MPEGH/ISO/HEVC
    Duration : 1 h 29 min
    Bit rate : 977 kb/s
    Width : 1 280 pixels
    Height : 672 pixels
    Display aspect ratio : 1.905
    Frame rate mode : Constant
    Frame rate : 23.976 (24000/1001) FPS
    Color space : YUV
    Chroma subsampling : 4:2:0
    Bit depth : 8 bits
    Bits/(Pixel*Frame) : 0.047
    Stream size : 624 MiB (60%)
    Default : Yes
    Forced : No
    Audio #1
    ID : 2
    Format : AC-3
    Format/Info : Audio Coding 3
    Commercial name : Dolby Digital
    Codec ID : A_AC3
    Duration : 1 h 29 min
    Bit rate mode : Constant
    Bit rate : 384 kb/s
    Channel(s) : 6 channels
    Channel layout : L R C LFE Ls Rs
    Sampling rate : 48.0 kHz
    Frame rate : 31.250 FPS (1536 SPF)
    Bit depth : 16 bits
    Compression mode : Lossy
    Stream size : 245 MiB (24%)
    Title : iTunes
    Language : Russian
    Service kind : Complete Main
    Default : Yes
    Forced : No
    Audio #2
    ID : 3
    Format : AC-3
    Format/Info : Audio Coding 3
    Commercial name : Dolby Digital
    Codec ID : A_AC3
    Duration : 1 h 29 min
    Bit rate mode : Constant
    Bit rate : 192 kb/s
    Channel(s) : 2 channels
    Channel layout : L R
    Sampling rate : 48.0 kHz
    Frame rate : 31.250 FPS (1536 SPF)
    Bit depth : 16 bits
    Compression mode : Lossy
    Stream size : 123 MiB (12%)
    Language : Russian
    Service kind : Complete Main
    Default : No
    Forced : No
    Audio #3
    ID : 4
    Format : AAC LC SBR
    Format/Info : Advanced Audio Codec Low Complexity with Spectral Band Replication
    Commercial name : HE-AAC
    Format settings : Explicit
    Codec ID : A_AAC-2
    Duration : 1 h 29 min
    Bit rate : 70.5 kb/s
    Channel(s) : 2 channels
    Channel layout : L R
    Sampling rate : 48.0 kHz
    Frame rate : 23.438 FPS (2048 SPF)
    Compression mode : Lossy
    Delay relative to video : 23 ms
    Stream size : 45.0 MiB (4%)
    Language : English
    Default : No
    Forced : No
    Text
    ID : 5
    Format : UTF-8
    Codec ID : S_TEXT/UTF8
    Codec ID/Info : UTF-8 Plain Text
    Duration : 1 h 21 min
    Bit rate : 35 b/s
    Count of elements : 699
    Stream size : 21.5 KiB (0%)
    Language : English
    Default : Yes
    Forced : No
    Menu
    00:00:00.000 : :1
    00:03:44.200 : :2
    00:10:29.200 : :3
    00:18:11.200 : :4
    00:25:31.200 : :5
    00:34:30.200 : :6
    00:46:30.200 : :7
    00:54:01.200 : :8
    01:02:19.200 : :9
    01:12:44.200 : :10
    01:22:47.200 : :11


    _________________
    • NuRKHoNoFF ®
    • Не в сети
    • 5064
    • Пол: Мужской

    • Стаж: 11 месяцев 23 дня

    • Сообщений: 919

    • Откуда: Каттакурган

    • Провайдер: TPS TPS

    • Карма: 583


    • Наличие запрета:

    • Награды: 17 (Подробнее)
      Активный релизер 1 (Количество: 1) Активный релизер 2 (Количество: 1) Активный релизер 3 (Количество: 1) Активный релизер 4 (Количество: 1) Активный релизер 5 (Количество: 1)
  • Создавать темы 31-Июл-2019 16:07 (спустя 11 секунд)

    Релиз сделан с помощью современного кодека x265(HEVC), который обеспечивает высокую степень сжатия и отличное качество! Всем Приятного просмотра!

    _________________
    Показать сообщения:    
    Главная  Кинофильмы  Кинофильмы (HEVC)  Новинки

    Текущее время: 10-Дек 10:12

    Часовой пояс: UTC + 5



    Вы не можете начинать темы
    Вы не можете отвечать на сообщения
    Вы не можете редактировать свои сообщения
    Вы не можете удалять свои сообщения
    Вы не можете голосовать в опросах
    Вы не можете прикреплять файлы к сообщениям
    Вы не можете скачивать файлы