Домино / Domino (Брайан Де Пальма / Brian De Palma) [2019, Триллер, криминал, BDRip 720p] iTunes :: UZTOR.PW Трекер для всех
Регистрация ·
Имя: Пароль:  
· Забыли пароль?

Навигация по Торрент раздачам и Форум

 Домино / Domino (Брайан Де Пальма / Brian De Palma) [2019, Триллер, криминал, BDRip 720p] iTunes

Главная  Кинофильмы  Зарубежные кинофильмы  HD
Статистика раздачи
Нет
 
     
 
 
Автор Сообщение
  • NuRKHoNoFF ®
  • Не в сети
  • 5064
  • Пол: Мужской

  • Стаж: 8 месяцев 4 дня

  • Сообщений: 530

  • Откуда: Каттакурган

  • Провайдер: TPS TPS

  • Карма: 547


  • Создавать темы 31-Июл-2019 14:47

    Домино / Domino -Год выпуска: 2019
    Страна: Дания, Франция, Италия, Бельгия, Нидерланды
    Жанр: Триллер, криминал
    Продолжительность: 01:29:16
    Перевод: Дублированный [iTunes]
    Перевод: Профессиональный (многоголосый, закадровый) [HDrezka Studio]-Субтитры: английские (форс. вшитые, SDH)-Режиссер: Брайан Де Пальма-В ролях: Николай Костер-Валдау, Кэрис ван Хаутен, Гай Пирс, Сёрен Маллинг, Паприка Стеэн, Николас Бро, Томас В. Габриэльссон, Якоб Ульрик Ломанн, Элла-Джун Генрард, Эрик Эбони-Описание: Офицер полиции Копенгагена жаждет отомстить за смерть напарника от руки некоего Имрана. Охоту на убийцу он ведёт в компании с любовницей погибшего коллеги. Однако оба они становятся жертвами агента ЦРУ, подставившего Имрана.- -Качество: BDRip 720p
    Формат: MKV
    Видео: MPEG-4 AVC, 1280x674, 5937 kbps, 23,976 fps
    Звук №1: AC3, 5.1 ch, 48 kHz, 384 kbps | iTunes
    Звук №2: AC3, 2.0 ch, 48 kHz, 192 kbps | HDRezka Studio
    Звук №3: AC3, 5.1 ch, 48 kHz, 448 kbps | Оригинал-

    MediaInfo

    General
    Unique ID : 241698978703907075845884613972043698774 (0xB5D587B21A0B0BC6B46FD5173FF71256)
    Complete name : DominoBDRip720p.mkv
    Format : Matroska
    Format version : Version 4
    File size : 4.34 GiB
    Duration : 1 h 29 min
    Overall bit rate : 6 963 kb/s
    Encoded date : UTC 2019-07-30 19:03:04
    Writing application : mkvmerge v9.5.0 ('Quiet Fire') 64bit
    Writing library : libebml v1.3.4 + libmatroska v1.4.5
    Video
    ID : 1
    Format : AVC
    Format/Info : Advanced Video Codec
    Format profile : High@L4.1
    Format settings : CABAC / 9 Ref Frames
    Format settings, CABAC : Yes
    Format settings, ReFrames : 9 frames
    Codec ID : V_MPEG4/ISO/AVC
    Duration : 1 h 29 min
    Bit rate : 5 937 kb/s
    Width : 1 280 pixels
    Height : 674 pixels
    Display aspect ratio : 1.899
    Frame rate mode : Constant
    Frame rate : 23.976 (24000/1001) FPS
    Color space : YUV
    Chroma subsampling : 4:2:0
    Bit depth : 8 bits
    Scan type : Progressive
    Bits/(Pixel*Frame) : 0.287
    Stream size : 3.70 GiB (85%)
    Title : Sisendrovich(R)
    Writing library : x264 core 157 r2969 d4099dd
    Encoding settings : cabac=1 / ref=9 / deblock=1:-1:-1 / analyse=0x3:0x133 / me=umh / subme=11 / psy=1 / psy_rd=1.00:0.00 / mixed_ref=1 / me_range=32 / chroma_me=1 / trellis=2 / 8x8dct=1 / cqm=0 / deadzone=21,11 / fast_pskip=0 / chroma_qp_offset=-2 / threads=17 / lookahead_threads=4 / sliced_threads=0 / nr=0 / decimate=0 / interlaced=0 / bluray_compat=0 / constrained_intra=0 / bframes=14 / b_pyramid=2 / b_adapt=2 / b_bias=0 / direct=3 / weightb=1 / open_gop=0 / weightp=2 / keyint=240 / keyint_min=23 / scenecut=40 / intra_refresh=0 / rc_lookahead=120 / rc=2pass / mbtree=0 / bitrate=5937 / ratetol=1.0 / qcomp=0.70 / qpmin=0 / qpmax=69 / qpstep=4 / cplxblur=20.0 / qblur=0.5 / vbv_maxrate=50000 / vbv_bufsize=62500 / nal_hrd=none / filler=0 / ip_ratio=1.40 / pb_ratio=1.30 / aq=3:1.00
    Language : English
    Default : Yes
    Forced : No
    Audio #1
    ID : 2
    Format : AC-3
    Format/Info : Audio Coding 3
    Commercial name : Dolby Digital
    Codec ID : A_AC3
    Duration : 1 h 29 min
    Bit rate mode : Constant
    Bit rate : 384 kb/s
    Channel(s) : 6 channels
    Channel layout : L R C LFE Ls Rs
    Sampling rate : 48.0 kHz
    Frame rate : 31.250 FPS (1536 SPF)
    Bit depth : 16 bits
    Compression mode : Lossy
    Stream size : 245 MiB (6%)
    Title : rus
    Language : Russian
    Service kind : Complete Main
    Default : Yes
    Forced : No
    Audio #2
    ID : 3
    Format : AC-3
    Format/Info : Audio Coding 3
    Commercial name : Dolby Digital
    Codec ID : A_AC3
    Duration : 1 h 29 min
    Bit rate mode : Constant
    Bit rate : 192 kb/s
    Channel(s) : 2 channels
    Channel layout : L R
    Sampling rate : 48.0 kHz
    Frame rate : 31.250 FPS (1536 SPF)
    Bit depth : 16 bits
    Compression mode : Lossy
    Stream size : 123 MiB (3%)
    Title : HDRezka Studio
    Language : Russian
    Service kind : Complete Main
    Default : No
    Forced : No
    Audio #3
    ID : 4
    Format : AC-3
    Format/Info : Audio Coding 3
    Commercial name : Dolby Digital
    Codec ID : A_AC3
    Duration : 1 h 29 min
    Bit rate mode : Constant
    Bit rate : 448 kb/s
    Channel(s) : 6 channels
    Channel layout : L R C LFE Ls Rs
    Sampling rate : 48.0 kHz
    Frame rate : 31.250 FPS (1536 SPF)
    Bit depth : 16 bits
    Compression mode : Lossy
    Stream size : 286 MiB (6%)
    Title : eng
    Language : English
    Service kind : Complete Main
    Default : No
    Forced : No
    Text
    ID : 5
    Format : UTF-8
    Codec ID : S_TEXT/UTF8
    Codec ID/Info : UTF-8 Plain Text
    Duration : 1 h 22 min
    Bit rate : 42 b/s
    Count of elements : 881
    Stream size : 25.4 KiB (0%)
    Title : engSDH
    Language : English
    Default : No
    Forced : No
    Menu
    00:00:00.000 : :Chapter 01
    00:06:06.532 : :Chapter 02
    00:10:32.757 : :Chapter 03
    00:18:10.506 : :Chapter 04
    00:21:27.995 : :Chapter 05
    00:29:09.539 : :Chapter 06
    00:33:12.448 : :Chapter 07
    00:38:08.202 : :Chapter 08
    00:44:59.321 : :Chapter 09
    00:49:25.379 : :Chapter 10
    00:55:43.381 : :Chapter 11
    01:00:34.255 : :Chapter 12
    01:04:15.184 : :Chapter 13
    01:11:16.522 : :Chapter 14
    01:17:45.035 : :Chapter 15
    01:22:09.132 : :Chapter 16


    _________________
    Показать сообщения:    
    Главная  Кинофильмы  Зарубежные кинофильмы  HD

    Текущее время: 22-Авг 19:45

    Часовой пояс: UTC + 5



    Вы не можете начинать темы
    Вы не можете отвечать на сообщения
    Вы не можете редактировать свои сообщения
    Вы не можете удалять свои сообщения
    Вы не можете голосовать в опросах
    Вы не можете прикреплять файлы к сообщениям
    Вы не можете скачивать файлы