Мстители: Финал / Avengers: Endgame (Энтони Руссо, Джо Руссо / Anthony Russo, Joe Russo) [2019, Фантастика, фэнтези, боевик, приключения, WEB-DLRip-HEVC 1080p] :: UZTOR.PW Трекер для всех
Регистрация ·
Имя: Пароль:  
· Забыли пароль?

Навигация по Торрент раздачам и Форум

 Мстители: Финал / Avengers: Endgame (Энтони Руссо, Джо Руссо / Anthony Russo, Joe Russo) [2019, Фантастика, фэнтези, боевик, приключения, WEB-DLRip-HEVC 1080p]

Главная  Кинофильмы  Кинофильмы (HEVC)  Новинки
Статистика раздачи
Нет
 
     
 
 
Автор Сообщение
  • NuRKHoNoFF ®
  • Не в сети
  • 5064

  • Пол: Мужской

  • Стаж: 8 месяцев

  • Сообщений: 513

  • Откуда: Каттакурган

  • Провайдер: UzOnline UzOnline

  • Карма: 547


  • Создавать темы 30-Июл-2019 19:36

    Мстители: Финал / Avengers: Endgame -Год выпуска: 2019
    Страна: США
    Жанр: Фантастика, фэнтези, боевик, приключения
    Продолжительность: 03:01:36
    Перевод: Дублированный [Line]-Режиссер: Энтони Руссо, Джо Руссо / Anthony Russo, Joe Russo-В ролях: Роберт Дауни мл., Крис Эванс, Марк Руффало, Крис Хемсворт, Скарлетт Йоханссон, Джереми Реннер, Дон Чидл, Пол Радд, Бри Ларсон, Карен Гиллан-Описание: Оставшиеся в живых члены команды Мстителей и их союзники должны разработать новый план, который поможет противостоять разрушительным действиям могущественного титана Таноса. После наиболее масштабной и трагической битвы в истории они не могут допустить ошибку.- -Качество: WEB-DLRip-HEVC 1080p
    Формат: MKV
    Видео: HEVC, 1236 kb/s, 1920x808
    Аудио №1: AC3, 2 ch, 192 kb/s
    Аудио №2: AAC, 6 ch, 211 kb/s-

    MediaInfo

    General
    Unique ID : 324315382730642837430691800482555608340 (0xF3FCDEE65E2EC1658EB8C1487F43BD14)
    Complete name : Avengers.Endgame.2019.1080p.WEB-DL.6CH.x265.HEVC.mkv
    Format : Matroska
    Format version : Version 4
    File size : 2.09 GiB
    Duration : 3 h 1 min
    Overall bit rate : 1 648 kb/s
    Movie name : Avengers.Endgame.2019.1080p.WEB-DL.6CH.x265.HEVC
    Encoded date : UTC 2019-07-30 11:04:36
    Writing application : mkvmerge v22.0.0 ('At The End Of The World') 32-bit
    Writing library : libebml v1.3.5 + libmatroska v1.4.8
    Video
    ID : 1
    Format : HEVC
    Format/Info : High Efficiency Video Coding
    Format profile : Main@L4@Main
    Codec ID : V_MPEGH/ISO/HEVC
    Duration : 3 h 1 min
    Bit rate : 1 246 kb/s
    Width : 1 920 pixels
    Height : 808 pixels
    Display aspect ratio : 2.40:1
    Frame rate mode : Constant
    Frame rate : 23.976 (24000/1001) FPS
    Color space : YUV
    Chroma subsampling : 4:2:0
    Bit depth : 8 bits
    Bits/(Pixel*Frame) : 0.033
    Stream size : 1.58 GiB (76%)
    Default : Yes
    Forced : No
    Audio #1
    ID : 2
    Format : AAC LC SBR
    Format/Info : Advanced Audio Codec Low Complexity with Spectral Band Replication
    Commercial name : HE-AAC
    Format settings : Explicit
    Codec ID : A_AAC-2
    Duration : 3 h 1 min
    Bit rate : 211 kb/s
    Channel(s) : 6 channels
    Channel layout : C L R Ls Rs LFE
    Sampling rate : 48.0 kHz
    Frame rate : 23.438 FPS (2048 SPF)
    Compression mode : Lossy
    Delay relative to video : 23 ms
    Stream size : 274 MiB (13%)
    Language : English
    Default : No
    Forced : No
    Audio #2
    ID : 4
    Format : AC-3
    Format/Info : Audio Coding 3
    Commercial name : Dolby Digital
    Codec ID : A_AC3
    Duration : 2 h 58 min
    Bit rate mode : Constant
    Bit rate : 192 kb/s
    Channel(s) : 2 channels
    Channel layout : L R
    Sampling rate : 48.0 kHz
    Frame rate : 31.250 FPS (1536 SPF)
    Bit depth : 16 bits
    Compression mode : Lossy
    Stream size : 245 MiB (11%)
    Title : DUB | Line
    Language : Russian
    Service kind : Complete Main
    Default : No
    Forced : No
    Text #1
    ID : 3
    Format : UTF-8
    Codec ID : S_TEXT/UTF8
    Codec ID/Info : UTF-8 Plain Text
    Duration : 2 h 48 min
    Bit rate : 50 b/s
    Count of elements : 2340
    Stream size : 61.7 KiB (0%)
    Language : English
    Default : No
    Forced : No
    Text #2
    ID : 5
    Format : UTF-8
    Codec ID : S_TEXT/UTF8
    Codec ID/Info : UTF-8 Plain Text
    Duration : 2 h 49 min
    Bit rate : 80 b/s
    Count of elements : 2222
    Stream size : 100 KiB (0%)
    Language : Russian
    Default : No
    Forced : No
    Menu
    00:00:00.000 : :One Last Surprise
    00:08:05.400 : :"To The Garden"
    00:20:01.200 : :Five Years Later
    00:26:14.800 : :"A Time Heist"
    00:36:56.600 : :"Time Travel Do-Over"
    00:43:20.000 : :"I Fixed It"
    00:48:43.600 : :Assembling The Avengers
    00:57:36.200 : :"Get The Stones, Get Them Back"
    01:07:12.000 : :Rogue Transmission
    01:16:02.000 : :New York, 2012
    01:26:24.800 : :Asgard, 2013
    01:32:19.600 : :Morag, 2014
    01:38:55.200 : :New Jersey, 1970
    01:48:11.800 : :Vormir, 2014
    01:57:26.400 : :"I Was Made For This"
    02:04:59.600 : :Thanos' Return
    02:15:05.800 : :Avengers Assemble
    02:25:49.800 : :One Of The 14,000,605
    02:34:37.400 : :"Part Of The Journey Is The End"
    02:43:03.400 : :"Clip All The Branches"
    02:49:04.800 : :End Credits

    Показать сообщения:    
    Главная  Кинофильмы  Кинофильмы (HEVC)  Новинки

    Текущее время: 18-Авг 21:19

    Часовой пояс: UTC + 5



    Вы не можете начинать темы
    Вы не можете отвечать на сообщения
    Вы не можете редактировать свои сообщения
    Вы не можете удалять свои сообщения
    Вы не можете голосовать в опросах
    Вы не можете прикреплять файлы к сообщениям
    Вы не можете скачивать файлы