Мстители: Финал / Avengers: Endgame (Энтони Руссо, Джо Руссо / Anthony Russo, Joe Russo) [2019, Фантастика, фэнтези, боевик, приключения, WEB-DL 1080p] :: UZTOR.PW Лучший трекер в зоне TAS-IX!
Регистрация ·
Имя: Пароль:  
· Забыли пароль?
Уважаемые гости сайта! Добро Пожаловать на наш торрент трекер,где Вы можете бесплатно скачать любой Софт,Фильмы,Музыку и многое другое! А так же постоянно ведется набор модераторов и релизеров. Зарегистрируйтесь сейчас, чтобы получить доступ ко всем функциям. После регистрации или входа на сайт вы сможете создавать темы, отвечать на сообщения и скачивать файлы.

Навигация по Торрент раздачам и Форум

До нового обновления Торрент-Трекер осталось

 Мстители: Финал / Avengers: Endgame (Энтони Руссо, Джо Руссо / Anthony Russo, Joe Russo) [2019, Фантастика, фэнтези, боевик, приключения, WEB-DL 1080p]

Главная  Кинофильмы  Зарубежные кинофильмы  HD
Статистика раздачи
Нет
 
     
 
 
Автор Сообщение
  • NuRKHoNoFF ®
  • Не в сети
  • 5064
  • Пол: Мужской

  • Стаж: 11 месяцев 23 дня

  • Сообщений: 919

  • Откуда: Каттакурган

  • Провайдер: TPS TPS

  • Карма: 583


  • Наличие запрета:

  • Награды: 17 (Подробнее)
    Активный релизер 1 (Количество: 1) Активный релизер 2 (Количество: 1) Активный релизер 3 (Количество: 1) Активный релизер 4 (Количество: 1) Активный релизер 5 (Количество: 1)
  • Создавать темы 30-Июл-2019 15:34

    Мстители: Финал / Avengers: Endgame -Год выпуска: 2019
    Страна: США
    Жанр: Фантастика, фэнтези, боевик, приключения
    Продолжительность: 03:01:36
    Перевод: Дублированный-Субтитры: Англиские-Режиссер: Энтони Руссо, Джо Руссо / Anthony Russo, Joe Russo-В ролях: Роберт Дауни мл., Крис Эванс, Марк Руффало, Крис Хемсворт, Скарлетт Йоханссон, Джереми Реннер, Дон Чидл, Пол Радд, Бри Ларсон, Карен Гиллан-Описание: Оставшиеся в живых члены команды Мстителей и их союзники должны разработать новый план, который поможет противостоять разрушительным действиям могущественного титана Таноса. После наиболее масштабной и трагической битвы в истории они не могут допустить ошибку.- -Качество: WEB-DL 1080p
    Формат: MKV
    Видео: AVC, 4527 Kбит/с, 1920x804
    Аудио: AC3, 2 ch, 192 Кбит/с | RUS
    Аудио: AC3, 6 ch, 384 Кбит/с | ENG-

    MediaInfo

    Avengers.Endgame.2019.1080p.WEB-DL.DD5.1.H264-FGT
    General
    Unique ID : 180967753708212841336189462716621506345 (0x88251F2018E0F18EA27BAB718547C729)
    Complete name : Avengers.Endgame.2019.WEB-DL.1080p.mkv
    Format : Matroska
    Format version : Version 4
    File size : 6.47 GiB
    Duration : 3 h 1 min
    Overall bit rate : 5 102 kb/s
    Movie name : Avengers.Endgame.2019.1080p.WEB-DL.DD5.1.H264-FGT
    Encoded date : UTC 2019-07-30 08:02:31
    Writing application : mkvmerge v7.1.0 ('Good Love') 64bit built on Jul 27 2014 13:06:55
    Writing library : libebml v1.3.0 + libmatroska v1.4.1
    Video
    ID : 1
    Format : AVC
    Format/Info : Advanced Video Codec
    Format profile : High@L4
    Format settings : CABAC / 5 Ref Frames
    Format settings, CABAC : Yes
    Format settings, Reference fra : 5 frames
    Codec ID : V_MPEG4/ISO/AVC
    Duration : 3 h 1 min
    Bit rate : 4 527 kb/s
    Width : 1 920 pixels
    Height : 804 pixels
    Display aspect ratio : 2.40:1
    Frame rate mode : Constant
    Frame rate : 23.976 (24000/1001) FPS
    Color space : YUV
    Chroma subsampling : 4:2:0
    Bit depth : 8 bits
    Scan type : Progressive
    Bits/(Pixel*Frame) : 0.122
    Stream size : 5.74 GiB (89%)
    Title : Avengers.Endgame.2019.1080p.WEB-DL.DD5.1.H264-FGT
    Language : English
    Default : No
    Forced : No
    Color range : Limited
    Color primaries : BT.709
    Transfer characteristics : BT.709
    Matrix coefficients : BT.709
    Audio #1
    ID : 2
    Format : AC-3
    Format/Info : Audio Coding 3
    Commercial name : Dolby Digital
    Codec ID : A_AC3
    Duration : 2 h 58 min
    Bit rate mode : Constant
    Bit rate : 192 kb/s
    Channel(s) : 2 channels
    Channel layout : L R
    Sampling rate : 48.0 kHz
    Frame rate : 31.250 FPS (1536 SPF)
    Bit depth : 16 bits
    Compression mode : Lossy
    Stream size : 245 MiB (4%)
    Title : DUB | Line
    Language : Russian
    Service kind : Complete Main
    Default : Yes
    Forced : No
    Audio #2
    ID : 3
    Format : AC-3
    Format/Info : Audio Coding 3
    Commercial name : Dolby Digital
    Codec ID : A_AC3
    Duration : 3 h 1 min
    Bit rate mode : Constant
    Bit rate : 384 kb/s
    Channel(s) : 6 channels
    Channel layout : L R C LFE Ls Rs
    Sampling rate : 48.0 kHz
    Frame rate : 31.250 FPS (1536 SPF)
    Bit depth : 16 bits
    Compression mode : Lossy
    Stream size : 498 MiB (8%)
    Language : English
    Service kind : Complete Main
    Default : No
    Forced : No
    Text #1
    ID : 4
    Format : UTF-8
    Codec ID : S_TEXT/UTF8
    Codec ID/Info : UTF-8 Plain Text
    Duration : 2 h 47 min
    Bit rate : 50 b/s
    Count of elements : 2339
    Stream size : 61.6 KiB (0%)
    Language : English
    Default : No
    Forced : No
    Text #2
    ID : 5
    Format : UTF-8
    Codec ID : S_TEXT/UTF8
    Codec ID/Info : UTF-8 Plain Text
    Duration : 3 h 0 min
    Bit rate : 52 b/s
    Count of elements : 2641
    Stream size : 68.9 KiB (0%)
    Title : SDH
    Language : English
    Default : No
    Forced : No
    Menu
    00:00:00.000 : en:One Last Surprise
    00:08:05.234 : en:"To The Garden"
    00:20:05.120 : en:Five Years Later
    00:26:14.614 : en:"A Time Heist"
    00:36:56.505 : en:"Time Travel Do-Over"
    00:43:19.930 : en:"I Fixed It"
    00:48:43.503 : en:Assembling The Avengers
    00:57:36.077 : en:"Get The Stones, Get Them Back"
    01:07:11.944 : en:Rogue Transmission
    01:16:01.848 : en:New York, 2012
    01:26:24.762 : en:Asgard, 2013
    01:32:19.450 : en:Morag, 2014
    01:38:55.137 : en:New Jersey, 1970
    01:48:11.693 : en:Vormir, 2014
    01:57:26.247 : en:"I Was Made For This"
    02:04:59.575 : en:Thanos' Return
    02:15:05.764 : en:Avengers Assemble
    02:25:49.782 : en:One Of The 14,000,605
    02:34:39.520 : en:"Part Of The Journey Is The End"
    02:43:03.231 : en:"Clip All The Branches"
    02:49:04.676 : en:End Credits


    _________________
    Показать сообщения:    
    Главная  Кинофильмы  Зарубежные кинофильмы  HD

    Текущее время: 10-Дек 02:02

    Часовой пояс: UTC + 5



    Вы не можете начинать темы
    Вы не можете отвечать на сообщения
    Вы не можете редактировать свои сообщения
    Вы не можете удалять свои сообщения
    Вы не можете голосовать в опросах
    Вы не можете прикреплять файлы к сообщениям
    Вы не можете скачивать файлы