Мстители: Финал / Avengers: Endgame (Энтони Руссо, Джо Руссо / Anthony Russo, Joe Russo) [2019, Фантастика, фэнтези, боевик, приключения, HDRip-HEVC 720p] ENG :: UZTOR.PW Трекер для всех
Регистрация ·
Имя: Пароль:  
· Забыли пароль?

Навигация по Торрент раздачам и Форум

 Мстители: Финал / Avengers: Endgame (Энтони Руссо, Джо Руссо / Anthony Russo, Joe Russo) [2019, Фантастика, фэнтези, боевик, приключения, HDRip-HEVC 720p] ENG

Главная  Кинофильмы  Кинофильмы (HEVC)  Новинки
Статистика раздачи
Нет
 
     
 
 
Автор Сообщение
  • NuRKHoNoFF ®
  • Не в сети
  • 5064
  • Пол: Мужской

  • Стаж: 8 месяцев 4 дня

  • Сообщений: 530

  • Откуда: Каттакурган

  • Провайдер: TPS TPS

  • Карма: 547


  • Создавать темы 30-Июл-2019 05:58

    Мстители: Финал / Avengers: Endgame -Год выпуска: 2019
    Страна: США
    Жанр: Фантастика, фэнтези, боевик, приключения
    Продолжительность: 03:01:34
    Перевод: Отсутствует-Субтитры: Англиские-Режиссер: Энтони Руссо, Джо Руссо / Anthony Russo, Joe Russo-В ролях: Роберт Дауни мл., Крис Эванс, Марк Руффало, Крис Хемсворт, Скарлетт Йоханссон, Джереми Реннер, Дон Чидл, Пол Радд, Бри Ларсон, Карен Гиллан-Описание: Оставшиеся в живых члены команды Мстителей и их союзники должны разработать новый план, который поможет противостоять разрушительным действиям могущественного титана Таноса. После наиболее масштабной и трагической битвы в истории они не могут допустить ошибку.- -Качество: HDRip-HEVC 720p
    Формат: MKV
    Видео: HEVC, 593 kb/s, 1280x536
    Аудио: AAC, 2 ch, 66 kb/s-

    MediaInfo

    General
    Unique ID : 215771600244015128191478838175389723139 (0xA254193E3B4F730FDEE1FE4F579C2A03)
    Complete name : Avengers.Endgame.2019.LEAKED.INTERNAL.720p.HC.HDRip.2CH.x265.HEVC-PSA\Avengers.Endgame.2019.LEAKED.INTERNAL.720p.HC.HDRip.2CH.x265.HEVC-PSA.mkv
    Format : Matroska
    Format version : Version 4
    File size : 860 MiB
    Duration : 3 h 1 min
    Overall bit rate : 662 kb/s
    Movie name : Avengers.Endgame.2019.LEAKED.INTERNAL.720p.HC.HDRip.2CH.x265.HEVC-PSA
    Encoded date : UTC 2019-07-28 22:30:03
    Writing application : mkvmerge v35.0.0 ('All The Love In The World') 64-bit
    Writing library : libebml v1.3.9 + libmatroska v1.5.2
    Video
    ID : 1
    Format : HEVC
    Format/Info : High Efficiency Video Coding
    Format profile : Main@L3.1@Main
    Codec ID : V_MPEGH/ISO/HEVC
    Duration : 3 h 1 min
    Bit rate : 593 kb/s
    Width : 1 280 pixels
    Height : 536 pixels
    Display aspect ratio : 2.40:1
    Frame rate mode : Constant
    Frame rate : 29.970 (30000/1001) FPS
    Color space : YUV
    Chroma subsampling : 4:2:0
    Bit depth : 8 bits
    Bits/(Pixel*Frame) : 0.029
    Stream size : 770 MiB (90%)
    Default : Yes
    Forced : No
    Audio
    ID : 2
    Format : AAC LC SBR
    Format/Info : Advanced Audio Codec Low Complexity with Spectral Band Replication
    Commercial name : HE-AAC
    Format settings : Explicit
    Codec ID : A_AAC-2
    Duration : 3 h 1 min
    Bit rate : 66.2 kb/s
    Channel(s) : 2 channels
    Channel layout : L R
    Sampling rate : 48.0 kHz
    Frame rate : 23.438 FPS (2048 SPF)
    Compression mode : Lossy
    Delay relative to video : 50 ms
    Stream size : 86.3 MiB (10%)
    Language : English
    Default : Yes
    Forced : No
    Text
    ID : 3
    Format : UTF-8
    Codec ID : S_TEXT/UTF8
    Codec ID/Info : UTF-8 Plain Text
    Duration : 5 s 0 ms
    Bit rate : 65 b/s
    Count of elements : 1
    Stream size : 41.0 Bytes (0%)
    Language : English
    Default : Yes
    Forced : No


    _________________
    Показать сообщения:    
    Главная  Кинофильмы  Кинофильмы (HEVC)  Новинки

    Текущее время: 22-Авг 19:50

    Часовой пояс: UTC + 5



    Вы не можете начинать темы
    Вы не можете отвечать на сообщения
    Вы не можете редактировать свои сообщения
    Вы не можете удалять свои сообщения
    Вы не можете голосовать в опросах
    Вы не можете прикреплять файлы к сообщениям
    Вы не можете скачивать файлы