Покемон. Детектив Пикачу / Pokémon Detective Pikachu (Роб Леттерман / Rob Letterman) [2019, Фантастика, фэнтези, детектив, BDRip 1080p HEVC] Лицензия :: UZTOR.PW Лучший трекер в зоне TAS-IX!
Регистрация ·
Имя: Пароль:  
· Забыли пароль?
Уважаемые гости сайта! Добро Пожаловать на наш торрент трекер,где Вы можете бесплатно скачать любой Софт,Фильмы,Музыку и многое другое! А так же постоянно ведется набор модераторов и релизеров. Зарегистрируйтесь сейчас, чтобы получить доступ ко всем функциям. После регистрации или входа на сайт вы сможете создавать темы, отвечать на сообщения и скачивать файлы.

Навигация по Торрент раздачам и Форум

До нового обновления Торрент-Трекер осталось

 Покемон. Детектив Пикачу / Pokémon Detective Pikachu (Роб Леттерман / Rob Letterman) [2019, Фантастика, фэнтези, детектив, BDRip 1080p HEVC] Лицензия

Главная  Кинофильмы  Кинофильмы (HEVC)  Новинки
Статистика раздачи
Нет
 
     
 
 
Автор Сообщение
  • normaluser ®
  • Не в сети
  • 5388
  • Пол: Мужской

  • Стаж: 6 месяцев 10 дней

  • Сообщений: 36

  • Откуда: Uzbekistan Airways

  • Провайдер: UzOnline UzOnline

  • Telegram: fastfood_king

  • Карма: 40


  • Наличие запрета:

  • Награды: Нет
  • Создавать темы 22-Июл-2019 14:11

    Покемон. Детектив ПикачуPokémon Detective Pikachu Год выпуска: 2019
    Страна: США, Япония
    Жанр: фантастика, фэнтези, детектив, приключения, семейный
    Продолжительность: 01:44:29
    Перевод: Дублированный Лицензия
    Режиссер: Роб Леттерман / Rob Letterman
    В ролях: Райан Рейнольдс, Джастис Смит, Кэтрин Ньютон, Билл Найи, Кэн Ватанабэ, Крис Гир, Сьюки Уотерхаус, Джозетт Саймон, Алехандро Де Меса, Рита Ора Описание: История начинается с таинственного исчезновения частного детектива экстра- класса Гарри Гудмана, расследовать которое предстоит его 21-летнему сыну Тиму. Помощь в расследовании ему окажет бывший партнер отца, детектив Пикачу — уморительный, остроумный и обаятельный сыщик, который является загадкой даже для себя самого. Обнаружив, что они каким-то фантастическим образом способны общаться друг с другом, Тим и Пикачу объединяют усилия в захватывающем расследовании этой запутанной истории. В погоне за уликами по неоновым улицам Райм Сити — современного разросшегося мегаполиса, где люди и покемоны живут бок о бок в гиперреалистичном мире игрового экшна, — они встречают самых разнообразных покемонов и раскрывают ужасный заговор, который способен разрушить это мирное сосуществование и стать угрозой для всей вселенной покемонов. Качество: BDRip 1080p
    Формат: mkv
    Видео: HEVC, 1200 Kбит/с, 1920x808
    Аудио: AC3, 6 ch, 448 Кбит/с
    Субтитры: русские, английские

    MediaInfo

    General
    Unique ID : 154608929033678890631840090460583525421 (0x745098BB67761703D44D9C30C8027C2D)
    Complete name : E:\E GAMES\common\Pokemon.Detective.Pikachu.2019.1080p.BDRip.HEVC.mkv
    Format : Matroska
    Format version : Version 4
    File size : 1.20 GiB
    Duration : 1 h 44 min
    Overall bit rate : 1 651 kb/s
    Movie name : Pokemon.Detective.Pikachu.2019.1080p.BrRip.x265.HEVCBay.com.mkv
    Encoded date : UTC 2019-07-24 01:25:34
    Writing application : mkvmerge v22.0.0 ('At The End Of The World') 32-bit
    Writing library : libebml v1.3.5 + libmatroska v1.4.8
    Video
    ID : 1
    Format : HEVC
    Format/Info : High Efficiency Video Coding
    Format profile : Main@L4@Main
    Codec ID : V_MPEGH/ISO/HEVC
    Duration : 1 h 44 min
    Bit rate : 1 201 kb/s
    Width : 1 920 pixels
    Height : 808 pixels
    Display aspect ratio : 2.40:1
    Frame rate mode : Constant
    Frame rate : 23.976 (24000/1001) FPS
    Color space : YUV
    Chroma subsampling : 4:2:0
    Bit depth : 8 bits
    Bits/(Pixel*Frame) : 0.032
    Stream size : 898 MiB (73%)
    Language : English
    Default : Yes
    Forced : No
    Color range : Limited
    Audio
    ID : 3
    Format : AC-3
    Format/Info : Audio Coding 3
    Commercial name : Dolby Digital
    Codec ID : A_AC3
    Duration : 1 h 44 min
    Bit rate mode : Constant
    Bit rate : 448 kb/s
    Channel(s) : 6 channels
    Channel layout : L R C LFE Ls Rs
    Sampling rate : 48.0 kHz
    Frame rate : 31.250 FPS (1536 SPF)
    Bit depth : 16 bits
    Compression mode : Lossy
    Delay relative to video : -148 ms
    Stream size : 335 MiB (27%)
    Service kind : Complete Main
    Default : Yes
    Forced : No
    Text #1
    ID : 2
    Format : UTF-8
    Codec ID : S_TEXT/UTF8
    Codec ID/Info : UTF-8 Plain Text
    Duration : 1 h 36 min
    Bit rate : 69 b/s
    Count of elements : 1597
    Stream size : 49.1 KiB (0%)
    Language : English
    Default : No
    Forced : No
    Text #2
    ID : 4
    Format : UTF-8
    Codec ID : S_TEXT/UTF8
    Codec ID/Info : UTF-8 Plain Text
    Duration : 50 min 1 s
    Bit rate : 1 b/s
    Count of elements : 11
    Stream size : 567 Bytes (0%)
    Default : Yes
    Forced : No


    _________________
    @fastfood_king телеграмм
    Показать сообщения:    
    Главная  Кинофильмы  Кинофильмы (HEVC)  Новинки

    Текущее время: 10-Дек 02:03

    Часовой пояс: UTC + 5



    Вы не можете начинать темы
    Вы не можете отвечать на сообщения
    Вы не можете редактировать свои сообщения
    Вы не можете удалять свои сообщения
    Вы не можете голосовать в опросах
    Вы не можете прикреплять файлы к сообщениям
    Вы не можете скачивать файлы