Мастера меча онлайн: Послесловие / Sword Art Online: Extra Edition (Ито Томохико) [2013, приключения, фэнтези, романтика, драма, BDRip-HEVC 1080p][AniDUB] :: UZTOR.PW Лучший трекер в зоне TAS-IX!
Регистрация ·
Имя: Пароль:  
· Забыли пароль?
Уважаемые гости сайта! Добро Пожаловать на наш торрент трекер,где Вы можете бесплатно скачать любой Софт,Фильмы,Музыку и многое другое! А так же постоянно ведется набор модераторов и релизеров. Зарегистрируйтесь сейчас, чтобы получить доступ ко всем функциям. После регистрации или входа на сайт вы сможете создавать темы, отвечать на сообщения и скачивать файлы.

Навигация по Торрент раздачам и Форум

До нового обновления Торрент-Трекер осталось

 Мастера меча онлайн: Послесловие / Sword Art Online: Extra Edition (Ито Томохико) [2013, приключения, фэнтези, романтика, драма, BDRip-HEVC 1080p][AniDUB]

Главная  Аниме  Манга и OVA  Манга и OVA
Статистика раздачи
Нет
 
     
 
 
Автор Сообщение
  • -InVoKeR- ®
  • Не в сети
  • 5057
  • VIP пользователь

  • Пол: Мужской

  • Стаж: 1 год

  • Сообщений: 421

  • Откуда: uztor.pw

  • Провайдер: UzOnline UzOnline

  • Тарифный план: Unlim 4 (Мир: 4 Мбит/с, Tas-ix: 100Мбит/с)

  • Steam: 76561198442747843

  • Telegram: i_Invoker

  • Карма: 1128


  • Наличие запрета:

  • Награды: 22 (Подробнее)
    Admin (Количество: 1) Авторитет (Количество: 1) Активный релизер 1 (Количество: 1) Активный релизер 2 (Количество: 1) Активный сидер 1 (Количество: 1)
  • Создавать темы 21-Июл-2019 23:02

    Мастера меча онлайн: Послесловие / Sword Art Online: Extra Edition--
    Год выпуска: 2013
    Страна: Япония
    Студия: A-1 Pictures
    Жанр: экшен, драма, фэнтези, военное, детектив, сёнен
    Количество эпизодов: 1
    Продолжительность: 01:40:00-Переводы: Любительский многоголосый [AniDUB]-Режиссер: Ито Томохико-В ролях: Ёсицугу Мацуока, Харука Томацу, Ито Канаэ, Аяна Такэтацу, Миюки Савасиро, Аяхи Такагаки, Рина Хидака, Синъя Такахаси, Хироки Ясумото, Соитиро Хоси-О фильме: Юи хочет увидеть кита, выполняя подводное задание вместе с Кирито в Alfheim Online. Однако в ходе задания выясняется, что Лифа не умеет плавать. Асуна и другие девушки решают тренировать Сугуху в бассейне в реальном мире.
    А в это время Кадзуто кое-кого встречает...
    - -Дополнительная Информация:
    Сценарий: Рэки Кавахара, Алекс Фон Дэвид
    Продюсер: Синъитиро Касивада, Кадзума Мики, Ёсукэ Футами
    Оператор: Такэси Хироока, Мицуми Усуда
    Композитор: Юки Кадзиура
    Художник: Такаюки Нагасима, Юсукэ Такэда
    Монтаж: Сигэру Нисияма-Возраст: 16+ (зрителям, достигшим 16 лет)-Дата мировой премьеры: 31 декабря 2013-Качество: BDRip-HEVC 1080p
    Формат: MKV
    Видео: HEVC, 1920x1080, 1764 kbps, 23.976 fps
    Аудио#1: (Rus(int)): AC-3, 192 kbps, 48,0 KHz, 2 ch | [AniDUB]
    Аудио#2: (Japanese): AAC, 82 kbps, 44,1 KHz, 2 ch | [Original]
    Субтитры: русские (встроенные полный перевод, ASS)--

    MediaInfo

    General
    Unique ID : 4777136948111068941075167542767040126 (0x3980B093C6C3716AA8CB608B958B67E)
    Complete name : D:\Sword Art Online Extra Edition\Sword Art Online Extra Edition.mkv
    Format : Matroska
    Format version : Version 4
    File size : 1.46 GiB
    Duration : 1 h 40 min
    Overall bit rate : 2 073 kb/s
    Movie name : [bonkai77] Sword Art Online Extra Edition
    Encoded date : UTC 2018-08-13 07:17:58
    Writing application : mkvmerge v25.0.0 ('Prog Noir') 64-bit
    Writing library : libebml v1.3.6 + libmatroska v1.4.9
    Attachments : [z] Arista.ttf / airborne.ttf / Amienne.ttf / Antipasto_regular.otf / Arkona-Regular-Regular.ttf / AveriaSerif-Bold.ttf / BALZANOPL.ttf / BEBAS.TTF / bluehigh.ttf / CommieSans-Medium.ttf / CommieSans-MediumIt.ttf / consola.ttf / Constance.ttf / DFBRUSHRD.TTC / fansubBlock.ttf / FTLTLT.TTF / GOTHIC_1.TTF / GOTHICB_1.TTF / IwaNGoPro-Md-AW.ttf / KhmerUI.ttf / KozGoPr6N-Medium.otf / KozMinPr6N-Regular.otf / laurencb.ttf / LT.ttf / LT_1.ttf / LT_3italic.ttf / LT_italic.ttf / lvnm.ttf / lvnmbd.ttf / macron finnetier 0.3.ttf / macron finnetier 0.3_0.ttf / MATURASC.TTF / Montara-Bold.otf / Montara-BoldItalic.otf / Montara-Gothic.otf / montaragothic.ttf / Montara-Italic.TTF / PLCC__.TTF / PLCC___.TTF / POCOC_1.TTC / Prototype.ttf / sword_art_online_font_by_darkblackswords-d5nssbp.otf
    Video
    ID : 1
    Format : HEVC
    Format/Info : High Efficiency Video Coding
    Format profile : Main 10@L4@Main
    Codec ID : V_MPEGH/ISO/HEVC
    Duration : 1 h 40 min
    Bit rate : 1 764 kb/s
    Width : 1 920 pixels
    Height : 1 080 pixels
    Display aspect ratio : 16:9
    Frame rate mode : Constant
    Frame rate : 23.976 (24000/1001) FPS
    Color space : YUV
    Chroma subsampling : 4:2:0
    Bit depth : 10 bits
    Bits/(Pixel*Frame) : 0.035
    Stream size : 1.24 GiB (85%)
    Title : [bonkai77]
    Writing library : x265 1.8+31-b6156a08b1de:[Windows][GCC 5.2.0][64 bit] 10bit
    Encoding settings : wpp / ctu=64 / min-cu-size=8 / max-tu-size=32 / tu-intra-depth=1 / tu-inter-depth=1 / me=1 / subme=2 / merange=57 / no-rect / no-amp / max-merge=2 / temporal-mvp / no-early-skip / rdpenalty=0 / no-tskip / no-tskip-fast / strong-intra-smoothing / no-lossless / no-cu-lossless / no-constrained-intra / no-fast-intra / open-gop / no-temporal-layers / interlace=0 / keyint=250 / min-keyint=23 / scenecut=40 / rc-lookahead=20 / lookahead-slices=0 / bframes=4 / bframe-bias=0 / b-adapt=2 / ref=3 / limit-refs=0 / weightp / no-weightb / aq-mode=1 / qg-size=32 / aq-strength=1.00 / cbqpoffs=0 / crqpoffs=0 / rd=3 / psy-rd=0.30 / rdoq-level=0 / psy-rdoq=0.00 / signhide / deblock / sao / no-sao-non-deblock / b-pyramid / cutree / rc=2 / pass / bitrate=1764 / qcomp=0.60 / qpmin=0 / qpmax=51 / qpstep=4 / cplxblur=20.0 / qblur=0.5 / ipratio=1.40 / pbratio=1.30
    Default : Yes
    Forced : No
    Audio #1
    ID : 2
    Format : AC-3
    Format/Info : Audio Coding 3
    Commercial name : Dolby Digital
    Codec ID : A_AC3
    Duration : 1 h 40 min
    Bit rate mode : Constant
    Bit rate : 192 kb/s
    Channel(s) : 2 channels
    Channel layout : L R
    Sampling rate : 48.0 kHz
    Frame rate : 31.250 FPS (1536 SPF)
    Bit depth : 16 bits
    Compression mode : Lossy
    Stream size : 138 MiB (9%)
    Title : AniDUB
    Language : Russian
    Service kind : Complete Main
    Default : Yes
    Forced : No
    Audio #2
    ID : 3
    Format : AAC LC SBR
    Format/Info : Advanced Audio Codec Low Complexity with Spectral Band Replication
    Commercial name : HE-AAC
    Format settings : Explicit
    Codec ID : A_AAC-2
    Duration : 1 h 40 min
    Bit rate : 82.6 kb/s
    Channel(s) : 2 channels
    Channel layout : L R
    Sampling rate : 48.0 kHz
    Frame rate : 23.438 FPS (2048 SPF)
    Compression mode : Lossy
    Delay relative to video : 40 ms
    Stream size : 59.5 MiB (4%)
    Title : Original
    Language : Japanese
    Default : No
    Forced : No
    Text #1
    ID : 4
    Format : ASS
    Codec ID : S_TEXT/ASS
    Codec ID/Info : Advanced Sub Station Alpha
    Duration : 1 h 40 min
    Bit rate : 4 b/s
    Count of elements : 17
    Compression mode : Lossless
    Stream size : 3.41 KiB (0%)
    Title : Надписи
    Language : Russian
    Default : Yes
    Forced : No
    Text #2
    ID : 5
    Format : ASS
    Codec ID : S_TEXT/ASS
    Codec ID/Info : Advanced Sub Station Alpha
    Duration : 1 h 40 min
    Bit rate : 138 b/s
    Count of elements : 1238
    Compression mode : Lossless
    Stream size : 102 KiB (0%)
    Title : Полные субтитры
    Language : Russian
    Default : No
    Forced : No

    _________________
    Показать сообщения:    
    Главная  Аниме  Манга и OVA  Манга и OVA

    Текущее время: 10-Дек 02:57

    Часовой пояс: UTC + 5



    Вы не можете начинать темы
    Вы не можете отвечать на сообщения
    Вы не можете редактировать свои сообщения
    Вы не можете удалять свои сообщения
    Вы не можете голосовать в опросах
    Вы не можете прикреплять файлы к сообщениям
    Вы не можете скачивать файлы